  0
SECTION
  2
HEADER
  9
$ACADVER
  1
AC1015
  9
$ACADMAINTVER
 70
     6
  9
$DWGCODEPAGE
  3
ANSI_1252
  9
$INSBASE
 10
0.0
 20
0.0
 30
0.0
  9
$EXTMIN
 10
19.49999999999996
 20
19.4999999999999
 30
0.0
  9
$EXTMAX
 10
574.5
 20
420.5
 30
0.0
  9
$LIMMIN
 10
0.0
 20
0.0
  9
$LIMMAX
 10
12.0
 20
9.0
  9
$ORTHOMODE
 70
     0
  9
$REGENMODE
 70
     1
  9
$FILLMODE
 70
     1
  9
$QTEXTMODE
 70
     0
  9
$MIRRTEXT
 70
     1
  9
$LTSCALE
 40
1.0
  9
$ATTMODE
 70
     1
  9
$TEXTSIZE
 40
0.2
  9
$TRACEWID
 40
0.05
  9
$TEXTSTYLE
  7
Standard
  9
$CLAYER
  8
0
  9
$CELTYPE
  6
ByLayer
  9
$CECOLOR
 62
   256
  9
$CELTSCALE
 40
1.0
  9
$DISPSILH
 70
     0
  9
$DIMSCALE
 40
1.0
  9
$DIMASZ
 40
0.18
  9
$DIMEXO
 40
0.0625
  9
$DIMDLI
 40
0.38
  9
$DIMRND
 40
0.0
  9
$DIMDLE
 40
0.0
  9
$DIMEXE
 40
0.18
  9
$DIMTP
 40
0.0
  9
$DIMTM
 40
0.0
  9
$DIMTXT
 40
0.18
  9
$DIMCEN
 40
0.09
  9
$DIMTSZ
 40
0.0
  9
$DIMTOL
 70
     0
  9
$DIMLIM
 70
     0
  9
$DIMTIH
 70
     1
  9
$DIMTOH
 70
     1
  9
$DIMSE1
 70
     0
  9
$DIMSE2
 70
     0
  9
$DIMTAD
 70
     0
  9
$DIMZIN
 70
     0
  9
$DIMBLK
  1

  9
$DIMASO
 70
     1
  9
$DIMSHO
 70
     1
  9
$DIMPOST
  1

  9
$DIMAPOST
  1

  9
$DIMALT
 70
     0
  9
$DIMALTD
 70
     2
  9
$DIMALTF
 40
25.4
  9
$DIMLFAC
 40
1.0
  9
$DIMTOFL
 70
     0
  9
$DIMTVP
 40
0.0
  9
$DIMTIX
 70
     0
  9
$DIMSOXD
 70
     0
  9
$DIMSAH
 70
     0
  9
$DIMBLK1
  1

  9
$DIMBLK2
  1

  9
$DIMSTYLE
  2
Standard
  9
$DIMCLRD
 70
     0
  9
$DIMCLRE
 70
     0
  9
$DIMCLRT
 70
     0
  9
$DIMTFAC
 40
1.0
  9
$DIMGAP
 40
0.09
  9
$DIMJUST
 70
     0
  9
$DIMSD1
 70
     0
  9
$DIMSD2
 70
     0
  9
$DIMTOLJ
 70
     1
  9
$DIMTZIN
 70
     0
  9
$DIMALTZ
 70
     0
  9
$DIMALTTZ
 70
     0
  9
$DIMUPT
 70
     0
  9
$DIMDEC
 70
     4
  9
$DIMTDEC
 70
     4
  9
$DIMALTU
 70
     2
  9
$DIMALTTD
 70
     2
  9
$DIMTXSTY
  7
Standard
  9
$DIMAUNIT
 70
     0
  9
$DIMADEC
 70
     0
  9
$DIMALTRND
 40
0.0
  9
$DIMAZIN
 70
     0
  9
$DIMDSEP
 70
    46
  9
$DIMATFIT
 70
     3
  9
$DIMFRAC
 70
     0
  9
$DIMLDRBLK
  1

  9
$DIMLUNIT
 70
     2
  9
$DIMLWD
 70
    -2
  9
$DIMLWE
 70
    -2
  9
$DIMTMOVE
 70
     0
  9
$LUNITS
 70
     2
  9
$LUPREC
 70
     4
  9
$SKETCHINC
 40
0.1
  9
$FILLETRAD
 40
0.5
  9
$AUNITS
 70
     0
  9
$AUPREC
 70
     0
  9
$MENU
  1
.
  9
$ELEVATION
 40
0.0
  9
$PELEVATION
 40
0.0
  9
$THICKNESS
 40
0.0
  9
$LIMCHECK
 70
     0
  9
$CHAMFERA
 40
0.5
  9
$CHAMFERB
 40
0.5
  9
$CHAMFERC
 40
1.0
  9
$CHAMFERD
 40
0.0
  9
$SKPOLY
 70
     0
  9
$TDCREATE
 40
2454986.460633032
  9
$TDUCREATE
 40
2454986.377299699
  9
$TDUPDATE
 40
2454986.460633044
  9
$TDUUPDATE
 40
2454986.377299711
  9
$TDINDWG
 40
0.0000000116
  9
$TDUSRTIMER
 40
0.0000000116
  9
$USRTIMER
 70
     1
  9
$ANGBASE
 50
0.0
  9
$ANGDIR
 70
     0
  9
$PDMODE
 70
     0
  9
$PDSIZE
 40
0.0
  9
$PLINEWID
 40
0.0
  9
$SPLFRAME
 70
     0
  9
$SPLINETYPE
 70
     6
  9
$SPLINESEGS
 70
     8
  9
$HANDSEED
  5
3DB
  9
$SURFTAB1
 70
     6
  9
$SURFTAB2
 70
     6
  9
$SURFTYPE
 70
     6
  9
$SURFU
 70
     6
  9
$SURFV
 70
     6
  9
$UCSBASE
  2

  9
$UCSNAME
  2

  9
$UCSORG
 10
0.0
 20
0.0
 30
0.0
  9
$UCSXDIR
 10
1.0
 20
0.0
 30
0.0
  9
$UCSYDIR
 10
0.0
 20
1.0
 30
0.0
  9
$UCSORTHOREF
  2

  9
$UCSORTHOVIEW
 70
     0
  9
$UCSORGTOP
 10
0.0
 20
0.0
 30
0.0
  9
$UCSORGBOTTOM
 10
0.0
 20
0.0
 30
0.0
  9
$UCSORGLEFT
 10
0.0
 20
0.0
 30
0.0
  9
$UCSORGRIGHT
 10
0.0
 20
0.0
 30
0.0
  9
$UCSORGFRONT
 10
0.0
 20
0.0
 30
0.0
  9
$UCSORGBACK
 10
0.0
 20
0.0
 30
0.0
  9
$PUCSBASE
  2

  9
$PUCSNAME
  2

  9
$PUCSORG
 10
0.0
 20
0.0
 30
0.0
  9
$PUCSXDIR
 10
1.0
 20
0.0
 30
0.0
  9
$PUCSYDIR
 10
0.0
 20
1.0
 30
0.0
  9
$PUCSORTHOREF
  2

  9
$PUCSORTHOVIEW
 70
     0
  9
$PUCSORGTOP
 10
0.0
 20
0.0
 30
0.0
  9
$PUCSORGBOTTOM
 10
0.0
 20
0.0
 30
0.0
  9
$PUCSORGLEFT
 10
0.0
 20
0.0
 30
0.0
  9
$PUCSORGRIGHT
 10
0.0
 20
0.0
 30
0.0
  9
$PUCSORGFRONT
 10
0.0
 20
0.0
 30
0.0
  9
$PUCSORGBACK
 10
0.0
 20
0.0
 30
0.0
  9
$USERI1
 70
     0
  9
$USERI2
 70
     0
  9
$USERI3
 70
     0
  9
$USERI4
 70
     0
  9
$USERI5
 70
     0
  9
$USERR1
 40
16.0
  9
$USERR2
 40
0.0
  9
$USERR3
 40
0.0
  9
$USERR4
 40
0.0
  9
$USERR5
 40
0.0
  9
$WORLDVIEW
 70
     1
  9
$SHADEDGE
 70
     3
  9
$SHADEDIF
 70
    70
  9
$TILEMODE
 70
     1
  9
$MAXACTVP
 70
    64
  9
$PINSBASE
 10
0.0
 20
0.0
 30
0.0
  9
$PLIMCHECK
 70
     0
  9
$PEXTMIN
 10
1.00000000000000E+20
 20
1.00000000000000E+20
 30
1.00000000000000E+20
  9
$PEXTMAX
 10
-1.00000000000000E+20
 20
-1.00000000000000E+20
 30
-1.00000000000000E+20
  9
$PLIMMIN
 10
0.0
 20
0.0
  9
$PLIMMAX
 10
12.0
 20
9.0
  9
$UNITMODE
 70
     0
  9
$VISRETAIN
 70
     1
  9
$PLINEGEN
 70
     0
  9
$PSLTSCALE
 70
     1
  9
$TREEDEPTH
 70
  3020
  9
$CMLSTYLE
  2
Standard
  9
$CMLJUST
 70
     0
  9
$CMLSCALE
 40
1.0
  9
$PROXYGRAPHICS
 70
     1
  9
$MEASUREMENT
 70
     1
  9
$CELWEIGHT
370
    -1
  9
$ENDCAPS
280
     0
  9
$JOINSTYLE
280
     0
  9
$LWDISPLAY
290
     0
  9
$INSUNITS
 70
     1
  9
$HYPERLINKBASE
  1

  9
$STYLESHEET
  1

  9
$XEDIT
290
     1
  9
$CEPSNTYPE
380
     0
  9
$PSTYLEMODE
290
     1
  9
$FINGERPRINTGUID
  2
{A3F639D5-A443-4B24-ADE6-F9C6DD089773}
  9
$VERSIONGUID
  2
{FAEB1C32-E019-11D5-929B-00C0DF256EC4}
  9
$EXTNAMES
290
     1
  9
$PSVPSCALE
 40
0.0
  9
$OLESTARTUP
290
     0
  0
ENDSEC
  0
SECTION
  2
CLASSES
  0
CLASS
  1
ACDBDICTIONARYWDFLT
  2
AcDbDictionaryWithDefault
  3
ObjectDBX Classes
 90
        0
280
     0
281
     0
  0
CLASS
  1
VISUALSTYLE
  2
AcDbVisualStyle
  3
ObjectDBX Classes
 90
     4095
280
     0
281
     0
  0
CLASS
  1

  2
exOdDbPolyline
  3

 90
        0
280
     0
281
     1
  0
CLASS
  1

  2
exOdDbSpline
  3

 90
        0
280
     0
281
     1
  0
CLASS
  1
ACDBPLACEHOLDER
  2
AcDbPlaceHolder
  3
ObjectDBX Classes
 90
        0
280
     0
281
     0
  0
CLASS
  1
LAYOUT
  2
AcDbLayout
  3
ObjectDBX Classes
 90
        0
280
     0
281
     0
  0
ENDSEC
  0
SECTION
  2
TABLES
  0
TABLE
  2
VPORT
  5
8
330
0
100
AcDbSymbolTable
 70
     1
  0
VPORT
  5
29
330
8
100
AcDbSymbolTableRecord
100
AcDbViewportTableRecord
  2
*Active
 70
     0
 10
0.0
 20
0.0
 11
1.0
 21
1.0
 12
297.0
 22
219.9999999999999
 13
0.0
 23
0.0
 14
0.5
 24
0.5
 15
0.5
 25
0.5
 16
0.0
 26
0.0
 36
1.0
 17
0.0
 27
0.0
 37
0.0
 40
441.1000000000001
 41
1.60267857142857
 42
50.0
 43
0.0
 44
0.0
 50
0.0
 51
0.0
 71
     0
 72
   100
 73
     1
 74
     3
 75
     0
 76
     0
 77
     0
 78
     0
281
     0
 65
     1
110
0.0
120
0.0
130
0.0
111
1.0
121
0.0
131
0.0
112
0.0
122
1.0
132
0.0
 79
     0
146
0.0
  0
ENDTAB
  0
TABLE
  2
LTYPE
  5
5
330
0
100
AcDbSymbolTable
 70
     9
  0
LTYPE
  5
14
330
5
100
AcDbSymbolTableRecord
100
AcDbLinetypeTableRecord
  2
ByBlock
 70
     0
  3

 72
    65
 73
     0
 40
0.0
  0
LTYPE
  5
15
330
5
100
AcDbSymbolTableRecord
100
AcDbLinetypeTableRecord
  2
ByLayer
 70
     0
  3

 72
    65
 73
     0
 40
0.0
  0
LTYPE
  5
16
330
5
100
AcDbSymbolTableRecord
100
AcDbLinetypeTableRecord
  2
Continuous
 70
     0
  3
Solid line
 72
    65
 73
     0
 40
0.0
  0
LTYPE
  5
3B
330
5
100
AcDbSymbolTableRecord
100
AcDbLinetypeTableRecord
  2
DASHED
 70
     0
  3
Dashed
 72
    65
 73
     2
 40
15.0
 49
7.0
 74
     0
 49
-8.0
 74
     0
  0
LTYPE
  5
3C
330
5
100
AcDbSymbolTableRecord
100
AcDbLinetypeTableRecord
  2
DOTTED
 70
     0
  3
Dotted
 72
    65
 73
     2
 40
1.0
 49
0.0
 74
     0
 49
-1.0
 74
     0
  0
LTYPE
  5
3D
330
5
100
AcDbSymbolTableRecord
100
AcDbLinetypeTableRecord
  2
DOT_CENTER
 70
     0
  3
Dot_Center
 72
    65
 73
     4
 40
14.0
 49
12.0
 74
     0
 49
-1.0
 74
     0
 49
0.0
 74
     0
 49
-1.0
 74
     0
  0
LTYPE
  5
3E
330
5
100
AcDbSymbolTableRecord
100
AcDbLinetypeTableRecord
  2
LONG_DASHED
 70
     0
  3
Long_Dashed
 72
    65
 73
     2
 40
15.0
 49
10.0
 74
     0
 49
-5.0
 74
     0
  0
LTYPE
  5
3F
330
5
100
AcDbSymbolTableRecord
100
AcDbLinetypeTableRecord
  2
DASH_CENTER
 70
     0
  3
Dash_Center
 72
    65
 73
     4
 40
14.0
 49
11.0
 74
     0
 49
-1.0
 74
     0
 49
1.0
 74
     0
 49
-1.0
 74
     0
  0
LTYPE
  5
40
330
5
100
AcDbSymbolTableRecord
100
AcDbLinetypeTableRecord
  2
PHANTOM
 70
     0
  3
Phantom
 72
    65
 73
     6
 40
13.0
 49
10.0
 74
     0
 49
-1.0
 74
     0
 49
0.0
 74
     0
 49
-1.0
 74
     0
 49
0.0
 74
     0
 49
-1.0
 74
     0
  0
LTYPE
  5
41
330
5
100
AcDbSymbolTableRecord
100
AcDbLinetypeTableRecord
  2
CENTER_DASH_DASH
 70
     0
  3
Center_Dash_Dash
 72
    65
 73
     6
 40
14.0
 49
9.0
 74
     0
 49
-1.0
 74
     0
 49
1.0
 74
     0
 49
-1.0
 74
     0
 49
1.0
 74
     0
 49
-1.0
 74
     0
  0
LTYPE
  5
42
330
5
100
AcDbSymbolTableRecord
100
AcDbLinetypeTableRecord
  2
CHAIN
 70
     0
  3
CHAIN
 72
    65
 73
     4
 40
4.0
 49
1.0
 74
     0
 49
-1.0
 74
     0
 49
1.0
 74
     0
 49
-1.0
 74
     0
  0
ENDTAB
  0
TABLE
  2
LAYER
  5
2
330
0
100
AcDbSymbolTable
 70
    10
  0
LAYER
  5
10
330
2
100
AcDbSymbolTableRecord
100
AcDbLayerTableRecord
  2
0
 70
     0
 62
     7
  6
Continuous
370
    -3
390
F
  0
LAYER
  5
43
330
2
100
AcDbSymbolTableRecord
100
AcDbLayerTableRecord
  2
Bemaßungen_TC_020513_DIN_
 70
     0
 62
     7
  6
Continuous
370
    -3
390
F
  0
LAYER
  5
44
330
2
100
AcDbSymbolTableRecord
100
AcDbLayerTableRecord
  2
Mittellinie_TC_020513_DIN_
 70
     0
 62
     7
  6
Continuous
370
    -3
390
F
  0
LAYER
  5
45
330
2
100
AcDbSymbolTableRecord
100
AcDbLayerTableRecord
  2
Mittelpunktmarkierung_TC_020513_DIN_
 70
     0
 62
     7
  6
Continuous
370
    -3
390
F
  0
LAYER
  5
46
330
2
100
AcDbSymbolTableRecord
100
AcDbLayerTableRecord
  2
Schraffur
 70
     0
 62
     7
  6
Continuous
370
    -3
390
F
  0
LAYER
  5
47
330
2
100
AcDbSymbolTableRecord
100
AcDbLayerTableRecord
  2
Sichtbare_Kanten_TC_020513_DIN_
 70
     0
 62
     7
  6
Continuous
370
    -3
390
F
  0
LAYER
  5
48
330
2
100
AcDbSymbolTableRecord
100
AcDbLayerTableRecord
  2
Skizziergeometrie_ISO_
 70
     0
 62
     7
  6
Continuous
370
    -3
390
F
  0
LAYER
  5
49
330
2
100
AcDbSymbolTableRecord
100
AcDbLayerTableRecord
  2
Skizziergeometrie_TC_020513_DIN_
 70
     0
 62
     7
  6
Continuous
370
    -3
390
F
  0
LAYER
  5
4A
330
2
100
AcDbSymbolTableRecord
100
AcDbLayerTableRecord
  2
Symbole_ISO_
 70
     0
 62
     7
  6
Continuous
370
    -3
390
F
  0
LAYER
  5
4B
330
2
100
AcDbSymbolTableRecord
100
AcDbLayerTableRecord
  2
Symbole_TC_020513_DIN_
 70
     0
 62
     7
  6
Continuous
370
    -3
390
F
  0
ENDTAB
  0
TABLE
  2
STYLE
  5
3
330
0
100
AcDbSymbolTable
 70
     7
  0
STYLE
  5
11
330
3
100
AcDbSymbolTableRecord
100
AcDbTextStyleTableRecord
  2
Standard
 70
     0
 40
0.0
 41
1.0
 50
0.0
 71
     0
 42
0.2
  3
txt
  4

  0
STYLE
  5
6A
330
3
100
AcDbSymbolTableRecord
100
AcDbTextStyleTableRecord
  2
CONVERTER_11
 70
     0
 40
0.0
 41
0.75
 50
0.0
 71
     0
 42
0.2
  3
txt.shx
  4

  0
STYLE
  5
104
330
3
100
AcDbSymbolTableRecord
100
AcDbTextStyleTableRecord
  2
CONVERTER_12
 70
     0
 40
0.0
 41
0.59999996423721
 50
0.0
 71
     0
 42
0.2
  3
txt.shx
  4

  0
STYLE
  5
106
330
3
100
AcDbSymbolTableRecord
100
AcDbTextStyleTableRecord
  2
CONVERTER_13
 70
     0
 40
0.0
 41
0.67499998211861
 50
0.0
 71
     0
 42
0.2
  3
txt.shx
  4

  0
STYLE
  5
36D
330
3
100
AcDbSymbolTableRecord
100
AcDbTextStyleTableRecord
  2
CONVERTER_14
 70
     0
 40
0.0
 41
0.74999995529652
 50
0.0
 71
     0
 42
0.2
  3
ARIAL.TTF
  4

  0
STYLE
  5
36F
330
3
100
AcDbSymbolTableRecord
100
AcDbTextStyleTableRecord
  2
CONVERTER_15
 70
     0
 40
0.0
 41
0.56249998509884
 50
0.0
 71
     0
 42
0.2
  3
ARIAL.TTF
  4

  0
STYLE
  5
371
330
3
100
AcDbSymbolTableRecord
100
AcDbTextStyleTableRecord
  2
CONVERTER_16
 70
     0
 40
0.0
 41
0.625
 50
0.0
 71
     0
 42
0.2
  3
ARIAL.TTF
  4

  0
ENDTAB
  0
TABLE
  2
VIEW
  5
6
330
0
100
AcDbSymbolTable
 70
     0
  0
ENDTAB
  0
TABLE
  2
UCS
  5
7
330
0
100
AcDbSymbolTable
 70
     0
  0
ENDTAB
  0
TABLE
  2
APPID
  5
9
330
0
100
AcDbSymbolTable
 70
     1
  0
APPID
  5
12
330
9
100
AcDbSymbolTableRecord
100
AcDbRegAppTableRecord
  2
ACAD
 70
     0
  0
ENDTAB
  0
TABLE
  2
DIMSTYLE
  5
A
330
0
100
AcDbSymbolTable
 70
    10
100
AcDbDimStyleTable
  0
DIMSTYLE
105
27
330
A
100
AcDbSymbolTableRecord
100
AcDbDimStyleTableRecord
  2
Standard
 70
     0
340
11
  0
DIMSTYLE
105
37D
102
{ACAD_REACTORS
330
37E
102
}
330
A
100
AcDbSymbolTableRecord
100
AcDbDimStyleTableRecord
  2
ME10_DIM_10
 70
     0
 41
5.0
 42
2.0
 44
4.0
 73
     0
 74
     0
 77
     1
 78
    12
140
7.0
147
0.8
172
     1
173
     1
176
     7
177
     7
178
     7
271
     2
340
371
  0
DIMSTYLE
105
388
102
{ACAD_REACTORS
330
389
102
}
330
A
100
AcDbSymbolTableRecord
100
AcDbDimStyleTableRecord
  2
ME10_DIM_11
 70
     0
 41
5.0
 42
2.0
 44
4.0
 73
     0
 74
     0
 77
     1
 78
    12
140
7.0
147
0.8
172
     1
173
     1
176
     7
177
     7
178
     7
271
     2
340
371
  0
DIMSTYLE
105
393
102
{ACAD_REACTORS
330
394
102
}
330
A
100
AcDbSymbolTableRecord
100
AcDbDimStyleTableRecord
  2
ME10_DIM_12
 70
     0
 41
5.0
 42
2.0
 44
4.0
 73
     0
 74
     0
 77
     1
 78
    12
140
7.0
147
0.8
172
     1
173
     1
176
     7
177
     7
178
     7
271
     2
340
371
  0
DIMSTYLE
105
39E
102
{ACAD_REACTORS
330
39F
102
}
330
A
100
AcDbSymbolTableRecord
100
AcDbDimStyleTableRecord
  2
ME10_DIM_13
 70
     0
 41
5.0
 42
2.0
 44
4.0
 73
     0
 74
     0
 77
     1
 78
    12
140
7.0
147
0.8
172
     1
173
     1
176
     7
177
     7
178
     7
271
     2
340
371
  0
DIMSTYLE
105
3A9
102
{ACAD_REACTORS
330
3AA
102
}
330
A
100
AcDbSymbolTableRecord
100
AcDbDimStyleTableRecord
  2
ME10_DIM_14
 70
     0
 41
5.0
 42
2.0
 44
4.0
 73
     0
 74
     0
 77
     1
 78
    12
140
7.0
147
0.8
172
     1
173
     1
176
     7
177
     7
178
     7
271
     2
340
371
  0
DIMSTYLE
105
3B4
102
{ACAD_REACTORS
330
3B5
102
}
330
A
100
AcDbSymbolTableRecord
100
AcDbDimStyleTableRecord
  2
ME10_DIM_15
 70
     0
 41
5.0
 42
2.0
 44
4.0
 73
     0
 74
     0
 77
     1
 78
    12
140
7.0
147
0.8
172
     1
173
     1
176
     7
177
     7
178
     7
271
     2
340
371
  0
DIMSTYLE
105
3C1
102
{ACAD_REACTORS
330
3C2
102
}
330
A
100
AcDbSymbolTableRecord
100
AcDbDimStyleTableRecord
  2
ME10_DIM_16
 70
     0
 41
5.0
 42
2.0
 44
4.0
 73
     0
 74
     0
 77
     1
 78
    12
140
7.0
147
0.8
172
     1
173
     1
176
     7
177
     7
178
     7
271
     2
340
371
  0
DIMSTYLE
105
3CC
102
{ACAD_REACTORS
330
3CD
102
}
330
A
100
AcDbSymbolTableRecord
100
AcDbDimStyleTableRecord
  2
ME10_DIM_17
 70
     0
 41
5.0
 42
2.0
 44
4.0
 73
     0
 74
     0
 77
     1
 78
    12
140
7.0
147
0.8
172
     1
173
     1
176
     7
177
     7
178
     7
271
     2
340
371
  0
DIMSTYLE
105
3D7
102
{ACAD_REACTORS
330
3D8
102
}
330
A
100
AcDbSymbolTableRecord
100
AcDbDimStyleTableRecord
  2
ME10_DIM_18
 70
     0
 41
5.0
 42
2.0
 44
4.0
 73
     0
 74
     0
 77
     1
 78
    12
140
7.0
147
0.8
172
     1
173
     1
176
     7
177
     7
178
     7
271
     2
340
371
  0
ENDTAB
  0
TABLE
  2
BLOCK_RECORD
  5
1
330
0
100
AcDbSymbolTable
 70
    13
  0
BLOCK_RECORD
  5
1F
330
1
100
AcDbSymbolTableRecord
100
AcDbBlockTableRecord
  2
*Model_Space
340
22
  0
BLOCK_RECORD
  5
1B
330
1
100
AcDbSymbolTableRecord
100
AcDbBlockTableRecord
  2
*Paper_Space
340
1E
  0
BLOCK_RECORD
  5
23
330
1
100
AcDbSymbolTableRecord
100
AcDbBlockTableRecord
  2
*Paper_Space0
340
26
  0
BLOCK_RECORD
  5
4C
330
1
100
AcDbSymbolTableRecord
100
AcDbBlockTableRecord
  2
_D19
340
0
102
{BLKREFS
331
55
102
}
  0
BLOCK_RECORD
  5
4F
330
1
100
AcDbSymbolTableRecord
100
AcDbBlockTableRecord
  2
Schriftfelder_Ilme
340
0
102
{BLKREFS
331
56
102
}
  0
BLOCK_RECORD
  5
52
330
1
100
AcDbSymbolTableRecord
100
AcDbBlockTableRecord
  2
Ränder_Ilme_Rahmen_A4_quer
340
0
102
{BLKREFS
331
57
102
}
  0
BLOCK_RECORD
  5
374
330
1
100
AcDbSymbolTableRecord
100
AcDbBlockTableRecord
  2
*D4
340
0
  0
BLOCK_RECORD
  5
37F
330
1
100
AcDbSymbolTableRecord
100
AcDbBlockTableRecord
  2
*D5
340
0
  0
BLOCK_RECORD
  5
38A
330
1
100
AcDbSymbolTableRecord
100
AcDbBlockTableRecord
  2
*D6
340
0
  0
BLOCK_RECORD
  5
395
330
1
100
AcDbSymbolTableRecord
100
AcDbBlockTableRecord
  2
*D7
340
0
  0
BLOCK_RECORD
  5
3A0
330
1
100
AcDbSymbolTableRecord
100
AcDbBlockTableRecord
  2
*D8
340
0
  0
BLOCK_RECORD
  5
3AB
330
1
100
AcDbSymbolTableRecord
100
AcDbBlockTableRecord
  2
*D9
340
0
  0
BLOCK_RECORD
  5
3B6
330
1
100
AcDbSymbolTableRecord
100
AcDbBlockTableRecord
  2
*D10
340
0
  0
BLOCK_RECORD
  5
3C3
330
1
100
AcDbSymbolTableRecord
100
AcDbBlockTableRecord
  2
*D11
340
0
  0
BLOCK_RECORD
  5
3CE
330
1
100
AcDbSymbolTableRecord
100
AcDbBlockTableRecord
  2
*D12
340
0
  0
ENDTAB
  0
ENDSEC
  0
SECTION
  2
BLOCKS
  0
BLOCK
  5
20
330
1F
100
AcDbEntity
  8
0
100
AcDbBlockBegin
  2
*Model_Space
 70
     0
 10
0.0
 20
0.0
 30
0.0
  3
*Model_Space
  1

  0
ENDBLK
  5
21
330
1F
100
AcDbEntity
  8
0
100
AcDbBlockEnd
  0
BLOCK
  5
1C
330
1B
100
AcDbEntity
 67
     1
  8
0
100
AcDbBlockBegin
  2
*Paper_Space
 70
     0
 10
0.0
 20
0.0
 30
0.0
  3
*Paper_Space
  1

  0
ENDBLK
  5
1D
330
1B
100
AcDbEntity
 67
     1
  8
0
100
AcDbBlockEnd
  0
BLOCK
  5
24
330
23
100
AcDbEntity
  8
0
100
AcDbBlockBegin
  2
*Paper_Space0
 70
     0
 10
0.0
 20
0.0
 30
0.0
  3
*Paper_Space0
  1

  0
ENDBLK
  5
25
330
23
100
AcDbEntity
  8
0
100
AcDbBlockEnd
  0
BLOCK
  5
4D
330
4C
100
AcDbEntity
  8
0
100
AcDbBlockBegin
  2
_D19
 70
     0
 10
0.0
 20
0.0
 30
0.0
  3
_D19
  1

  0
LWPOLYLINE
  5
61
330
4C
100
AcDbEntity
  8
Bemaßungen_TC_020513_DIN_
  6
Continuous
 62
     7
100
AcDbPolyline
 90
        2
 70
     0
 43
0.25
 10
117.481338927083
 20
295.836804779765
 10
113.15121190816
 20
293.336804779766
  0
LWPOLYLINE
  5
62
330
4C
100
AcDbEntity
  8
Bemaßungen_TC_020513_DIN_
  6
Continuous
 62
     7
100
AcDbPolyline
 90
        2
 70
     0
 43
0.25
 10
130.038707281958
 20
303.086804779764
 10
155.590836252122
 20
317.839333319052
  0
LWPOLYLINE
  5
63
330
4C
100
AcDbEntity
  8
Bemaßungen_TC_020513_DIN_
  6
Continuous
 62
     7
100
AcDbPolyline
 90
        2
 70
     0
 43
0.25
 10
121.811465946005
 20
298.336804779765
 10
125.708580263036
 20
300.586804779764
  0
LWPOLYLINE
  5
64
102
{ACAD_REACTORS
330
6C
330
6C
102
}
330
4C
100
AcDbEntity
  8
Bemaßungen_TC_020513_DIN_
  6
Continuous
 62
     7
100
AcDbPolyline
 90
        2
 70
     0
 43
0.25
 10
117.898005593749
 20
295.115116943278
 10
117.064672260416
 20
296.558492616252
  0
LWPOLYLINE
  5
65
102
{ACAD_REACTORS
330
6C
330
6C
102
}
330
4C
100
AcDbEntity
  8
Bemaßungen_TC_020513_DIN_
  6
Continuous
 62
     7
100
AcDbPolyline
 90
        2
 70
     0
 43
0.25
 10
117.064672260416
 20
296.558492616252
 10
121.811465946005
 20
298.336804779765
  0
LWPOLYLINE
  5
66
102
{ACAD_REACTORS
330
6C
330
6C
102
}
330
4C
100
AcDbEntity
  8
Bemaßungen_TC_020513_DIN_
  6
Continuous
 62
     7
100
AcDbPolyline
 90
        2
 70
     0
 43
0.25
 10
121.811465946005
 20
298.336804779765
 10
117.898005593749
 20
295.115116943278
  0
LWPOLYLINE
  5
67
102
{ACAD_REACTORS
330
6D
330
6D
102
}
330
4C
100
AcDbEntity
  8
Bemaßungen_TC_020513_DIN_
  6
Continuous
 62
     7
100
AcDbPolyline
 90
        2
 70
     0
 43
0.25
 10
130.455373948625
 20
302.365116943277
 10
129.622040615292
 20
303.808492616251
  0
LWPOLYLINE
  5
68
102
{ACAD_REACTORS
330
6D
330
6D
102
}
330
4C
100
AcDbEntity
  8
Bemaßungen_TC_020513_DIN_
  6
Continuous
 62
     7
100
AcDbPolyline
 90
        2
 70
     0
 43
0.25
 10
129.622040615292
 20
303.808492616251
 10
125.708580263036
 20
300.586804779764
  0
LWPOLYLINE
  5
69
102
{ACAD_REACTORS
330
6D
330
6D
102
}
330
4C
100
AcDbEntity
  8
Bemaßungen_TC_020513_DIN_
  6
Continuous
 62
     7
100
AcDbPolyline
 90
        2
 70
     0
 43
0.25
 10
125.708580263036
 20
300.586804779764
 10
130.455373948625
 20
302.365116943277
  0
MTEXT
  5
6B
330
4C
100
AcDbEntity
  8
Bemaßungen_TC_020513_DIN_
 62
     7
100
AcDbMText
 10
131.40600719662
 20
315.703310845021
 30
0.0
 40
7.0
 41
0.0
 71
     1
 72
     1
  1
{\Fgdt;n}4,5
  7
CONVERTER_11
 11
0.8660254037844936
 21
0.4999999999999049
 31
0.0
 73
     1
 44
1.0
  0
HATCH
  5
6C
330
4C
100
AcDbEntity
  8
Bemaßungen_TC_020513_DIN_
  6
Continuous
 62
     7
100
AcDbHatch
 10
0.0
 20
0.0
 30
0.0
210
0.0
220
0.0
230
1.0
  2
SOLID
 70
     1
 71
     1
 91
        1
 92
        1
 93
        3
 72
     1
 10
117.898005593749
 20
295.115116943278
 11
117.064672260416
 21
296.558492616252
 72
     1
 10
117.064672260416
 20
296.558492616252
 11
121.811465946005
 21
298.336804779765
 72
     1
 10
121.811465946005
 20
298.336804779765
 11
117.898005593749
 21
295.115116943278
 97
        3
330
64
330
65
330
66
 75
     0
 76
     1
 98
        1
 10
0.0
 20
0.0
  0
HATCH
  5
6D
330
4C
100
AcDbEntity
  8
Bemaßungen_TC_020513_DIN_
  6
Continuous
 62
     7
100
AcDbHatch
 10
0.0
 20
0.0
 30
0.0
210
0.0
220
0.0
230
1.0
  2
SOLID
 70
     1
 71
     1
 91
        1
 92
        1
 93
        3
 72
     1
 10
130.455373948625
 20
302.365116943277
 11
129.622040615292
 21
303.808492616251
 72
     1
 10
129.622040615292
 20
303.808492616251
 11
125.708580263036
 21
300.586804779764
 72
     1
 10
125.708580263036
 20
300.586804779764
 11
130.455373948625
 21
302.365116943277
 97
        3
330
67
330
68
330
69
 75
     0
 76
     1
 98
        1
 10
0.0
 20
0.0
  0
ENDBLK
  5
4E
330
4C
100
AcDbEntity
  8
0
100
AcDbBlockEnd
  0
BLOCK
  5
50
330
4F
100
AcDbEntity
  8
0
100
AcDbBlockBegin
  2
Schriftfelder_Ilme
 70
     0
 10
0.0
 20
0.0
 30
0.0
  3
Schriftfelder_Ilme
  1

  0
LINE
  5
6E
102
{ACAD_REACTORS
330
10A
330
10A
102
}
330
4F
100
AcDbEntity
  8
0
  6
Continuous
 62
     7
100
AcDbLine
 10
192.857882489926
 20
15.5586421730067
 30
0.0
 11
191.48842975933
 21
14.7685732899702
 31
0.0
  0
LINE
  5
6F
102
{ACAD_REACTORS
330
10A
330
10A
102
}
330
4F
100
AcDbEntity
  8
0
  6
Continuous
 62
     7
100
AcDbLine
 10
190.988522274833
 20
15.0573018186531
 30
0.0
 11
190.988522274833
 21
19.9439783665993
 31
0.0
  0
LINE
  5
70
102
{ACAD_REACTORS
330
10A
330
10A
102
}
330
4F
100
AcDbEntity
  8
0
  6
Continuous
 62
     7
100
AcDbLine
 10
191.48842975933
 20
20.2327068952822
 30
0.0
 11
192.857882489926
 21
19.4426380122457
 31
0.0
  0
LINE
  5
71
102
{ACAD_REACTORS
330
10A
330
10A
102
}
330
4F
100
AcDbEntity
  8
0
  6
Continuous
 62
     7
100
AcDbLine
 10
192.5247341876
 20
18.8651809548799
 30
0.0
 11
191.6551889415
 21
19.3668416737836
 31
0.0
  0
LINE
  5
72
102
{ACAD_REACTORS
330
10A
330
10A
102
}
330
4F
100
AcDbEntity
  8
0
  6
Continuous
 62
     7
100
AcDbLine
 10
191.6551889415
 20
19.3668416737836
 30
0.0
 11
191.6551889415
 21
17.8339734259596
 31
0.0
  0
LINE
  5
73
102
{ACAD_REACTORS
330
10A
330
10A
102
}
330
4F
100
AcDbEntity
  8
0
  6
Continuous
 62
     7
100
AcDbLine
 10
191.6551889415
 20
17.8339734259596
 30
0.0
 11
192.691308338763
 21
17.8339734259596
 31
0.0
  0
LINE
  5
74
102
{ACAD_REACTORS
330
10A
330
10A
102
}
330
4F
100
AcDbEntity
  8
0
  6
Continuous
 62
     7
100
AcDbLine
 10
192.691308338763
 20
17.1673067592928
 30
0.0
 11
191.6551889415
 21
17.1673067592928
 31
0.0
  0
LINE
  5
75
102
{ACAD_REACTORS
330
10A
330
10A
102
}
330
4F
100
AcDbEntity
  8
0
  6
Continuous
 62
     7
100
AcDbLine
 10
191.6551889415
 20
17.1673067592928
 30
0.0
 11
191.6551889415
 21
15.6344385114688
 31
0.0
  0
LINE
  5
76
102
{ACAD_REACTORS
330
10A
330
10A
102
}
330
4F
100
AcDbEntity
  8
0
  6
Continuous
 62
     7
100
AcDbLine
 10
191.6551889415
 20
15.6344385114688
 30
0.0
 11
192.5247341876
 21
16.1360992303725
 31
0.0
  0
LINE
  5
77
102
{ACAD_REACTORS
330
10B
330
10B
102
}
330
4F
100
AcDbEntity
  8
0
  6
Continuous
 62
     7
100
AcDbLine
 10
186.988528696562
 20
20.7526980593071
 30
0.0
 11
186.988528696563
 21
15.8473707016896
 31
0.0
  0
LINE
  5
78
102
{ACAD_REACTORS
330
10B
330
10B
102
}
330
4F
100
AcDbEntity
  8
0
  6
Continuous
 62
     7
100
AcDbLine
 10
187.655195363229
 20
15.8473707016896
 30
0.0
 11
187.655195363229
 21
19.2535360148728
 31
0.0
  0
LINE
  5
79
102
{ACAD_REACTORS
330
10B
330
10B
102
}
330
4F
100
AcDbEntity
  8
0
  6
Continuous
 62
     7
100
AcDbLine
 10
187.655195363229
 20
19.2535360148728
 30
0.0
 11
188.510852383006
 21
17.7714945827671
 31
0.0
  0
LINE
  5
7A
102
{ACAD_REACTORS
330
10B
330
10B
102
}
330
4F
100
AcDbEntity
  8
0
  6
Continuous
 62
     7
100
AcDbLine
 10
188.7995275176
 20
17.7714945827671
 30
0.0
 11
189.655184537377
 21
19.2535360148728
 31
0.0
  0
LINE
  5
7B
102
{ACAD_REACTORS
330
10B
330
10B
102
}
330
4F
100
AcDbEntity
  8
0
  6
Continuous
 62
     7
100
AcDbLine
 10
189.655184537377
 20
19.2535360148728
 30
0.0
 11
189.655184537377
 21
14.2880685085818
 31
0.0
  0
LINE
  5
7C
102
{ACAD_REACTORS
330
10B
330
10B
102
}
330
4F
100
AcDbEntity
  8
0
  6
Continuous
 62
     7
100
AcDbLine
 10
190.321851204044
 20
14.2880685085818
 30
0.0
 11
190.321851204044
 21
20.752698059307
 31
0.0
  0
LINE
  5
7D
102
{ACAD_REACTORS
330
10B
330
10B
102
}
330
4F
100
AcDbEntity
  8
0
  6
Continuous
 62
     7
100
AcDbLine
 10
189.82741752042
 20
20.8851811655447
 30
0.0
 11
188.655189950303
 21
18.8548234560689
 31
0.0
  0
LINE
  5
7E
102
{ACAD_REACTORS
330
10B
330
10B
102
}
330
4F
100
AcDbEntity
  8
0
  6
Continuous
 62
     7
100
AcDbLine
 10
188.655189950303
 20
18.8548234560689
 30
0.0
 11
187.482962380186
 21
20.8851811655447
 31
0.0
  0
LINE
  5
7F
102
{ACAD_REACTORS
330
10C
330
10C
102
}
330
4F
100
AcDbEntity
  8
0
  6
Continuous
 62
     7
100
AcDbLine
 10
186.321857625773
 20
15.270660658657
 30
0.0
 11
186.321857625773
 21
19.9439783665993
 31
0.0
  0
LINE
  5
80
102
{ACAD_REACTORS
330
10C
330
10C
102
}
330
4F
100
AcDbEntity
  8
0
  6
Continuous
 62
     7
100
AcDbLine
 10
185.655190959106
 20
19.9439783665993
 30
0.0
 11
185.655190959106
 21
15.2706619304882
 31
0.0
  0
LINE
  5
81
102
{ACAD_REACTORS
330
10C
330
10C
102
}
330
4F
100
AcDbEntity
  8
0
  6
Continuous
 62
     7
100
AcDbLine
 10
185.988710425088
 20
14.6932029657285
 30
0.0
 11
188.15634562976
 21
13.4426441938023
 31
0.0
  0
LINE
  5
82
102
{ACAD_REACTORS
330
10C
330
10C
102
}
330
4F
100
AcDbEntity
  8
0
  6
Continuous
 62
     7
100
AcDbLine
 10
188.489493932086
 20
14.0201012511681
 30
0.0
 11
186.321857625773
 21
15.270660658657
 31
0.0
  0
LINE
  5
83
102
{ACAD_REACTORS
330
10D
330
10D
102
}
330
4F
100
AcDbEntity
  8
0
  6
Continuous
 62
     7
100
AcDbLine
 10
184.988523283636
 20
19.1539094835628
 30
0.0
 11
184.988523283636
 21
15.8473707016896
 31
0.0
  0
LINE
  5
84
102
{ACAD_REACTORS
330
10D
330
10D
102
}
330
4F
100
AcDbEntity
  8
0
  6
Continuous
 62
     7
100
AcDbLine
 10
184.32185661697
 20
15.8473707016896
 30
0.0
 11
184.32185661697
 21
19.1539094835628
 31
0.0
  0
ARC
  5
AC
102
{ACAD_REACTORS
330
10A
330
10A
102
}
330
4F
100
AcDbEntity
  8
0
  6
Continuous
 62
     7
100
AcDbCircle
 10
191.321855608167
 20
15.0573018186531
 30
0.0
 40
0.3333333333339965
100
AcDbArc
 50
180.0
 51
299.9816393688164
  0
ARC
  5
AD
102
{ACAD_REACTORS
330
10A
330
10A
102
}
330
4F
100
AcDbEntity
  8
0
  6
Continuous
 62
     7
100
AcDbCircle
 10
191.321855608167
 20
19.9439783665993
 30
0.0
 40
0.3333333333332604
100
AcDbArc
 50
60.01836063118353
 51
180.0
  0
ARC
  5
AE
102
{ACAD_REACTORS
330
10A
330
10A
102
}
330
4F
100
AcDbEntity
  8
0
  6
Continuous
 62
     7
100
AcDbCircle
 10
192.691308338763
 20
19.1539094835628
 30
0.0
 40
0.3333333333332746
100
AcDbArc
 50
240.0183606311793
 51
60.01835942367227
  0
ARC
  5
AF
102
{ACAD_REACTORS
330
10A
330
10A
102
}
330
4F
100
AcDbEntity
  8
0
  6
Continuous
 62
     7
100
AcDbCircle
 10
192.691308338763
 20
17.5006400926262
 30
0.0
 40
0.3333333333333997
100
AcDbArc
 50
270.0
 51
90.0
  0
ARC
  5
B0
102
{ACAD_REACTORS
330
10A
330
10A
102
}
330
4F
100
AcDbEntity
  8
0
  6
Continuous
 62
     7
100
AcDbCircle
 10
192.691308338763
 20
15.8473707016896
 30
0.0
 40
0.3333333333332619
100
AcDbArc
 50
299.9816393688163
 51
119.9816393688206
  0
ARC
  5
B1
102
{ACAD_REACTORS
330
10B
330
10B
102
}
330
4F
100
AcDbEntity
  8
0
  6
Continuous
 62
     7
100
AcDbCircle
 10
187.253494909038
 20
20.7526980593071
 30
0.0
 40
0.2649662124751274
100
AcDbArc
 50
30.00000000000922
 51
180.0
  0
ARC
  5
B2
102
{ACAD_REACTORS
330
10B
330
10B
102
}
330
4F
100
AcDbEntity
  8
0
  6
Continuous
 62
     7
100
AcDbCircle
 10
187.321862029896
 20
15.8473707016896
 30
0.0
 40
0.3333333333330017
100
AcDbArc
 50
180.0
 51
0.0
  0
ARC
  5
B3
102
{ACAD_REACTORS
330
10B
330
10B
102
}
330
4F
100
AcDbEntity
  8
0
  6
Continuous
 62
     7
100
AcDbCircle
 10
188.655189950303
 20
17.8548279161004
 30
0.0
 40
0.1666666666662864
100
AcDbArc
 50
210.0000000000623
 51
329.9999999999426
  0
ARC
  5
B4
102
{ACAD_REACTORS
330
10B
330
10B
102
}
330
4F
100
AcDbEntity
  8
0
  6
Continuous
 62
     7
100
AcDbCircle
 10
189.98851787071
 20
14.2880685085818
 30
0.0
 40
0.3333333333330017
100
AcDbArc
 50
180.0
 51
0.0
  0
ARC
  5
B5
102
{ACAD_REACTORS
330
10B
330
10B
102
}
330
4F
100
AcDbEntity
  8
0
  6
Continuous
 62
     7
100
AcDbCircle
 10
190.056884991568
 20
20.752698059307
 30
0.0
 40
0.2649662124759971
100
AcDbArc
 50
0.0
 51
149.9999999999752
  0
ARC
  5
B6
102
{ACAD_REACTORS
330
10C
330
10C
102
}
330
4F
100
AcDbEntity
  8
0
  6
Continuous
 62
     7
100
AcDbCircle
 10
185.988524292439
 20
19.9439783665993
 30
0.0
 40
0.3333333333339965
100
AcDbArc
 50
0.0
 51
180.0
  0
ARC
  5
B7
102
{ACAD_REACTORS
330
10C
330
10C
102
}
330
4F
100
AcDbEntity
  8
0
  6
Continuous
 62
     7
100
AcDbCircle
 10
186.321859827834
 20
15.2706619304882
 30
0.0
 40
0.66666886872801
100
AcDbArc
 50
180.0
 51
240.0183606311481
  0
ARC
  5
B8
102
{ACAD_REACTORS
330
10C
330
10C
102
}
330
4F
100
AcDbEntity
  8
0
  6
Continuous
 62
     7
100
AcDbCircle
 10
188.322919780923
 20
13.7313727224852
 30
0.0
 40
0.3333333333332604
100
AcDbArc
 50
240.0183606311836
 51
60.01836063118368
  0
ARC
  5
B9
102
{ACAD_REACTORS
330
10D
330
10D
102
}
330
4F
100
AcDbEntity
  8
0
  6
Continuous
 62
     7
100
AcDbCircle
 10
184.655189950303
 20
15.8473707016896
 30
0.0
 40
0.3333333333330017
100
AcDbArc
 50
180.0
 51
0.0
  0
ARC
  5
BA
102
{ACAD_REACTORS
330
10D
330
10D
102
}
330
4F
100
AcDbEntity
  8
0
  6
Continuous
 62
     7
100
AcDbCircle
 10
184.655189950303
 20
19.1539094835628
 30
0.0
 40
0.3333333333330017
100
AcDbArc
 50
0.0
 51
180.0
  0
LWPOLYLINE
  5
CC
330
4F
100
AcDbEntity
  8
Skizziergeometrie_ISO_
  6
Continuous
 62
     7
100
AcDbPolyline
 90
        2
 70
     0
 43
0.5
 10
19.980189950303
 20
45.0006400926262
 10
19.980189950303
 20
10.0006400926262
  0
LWPOLYLINE
  5
CD
330
4F
100
AcDbEntity
  8
Skizziergeometrie_ISO_
  6
Continuous
 62
     7
100
AcDbPolyline
 90
        2
 70
     0
 43
0.5
 10
189.655184537377
 20
14.2880685085818
 10
189.655184537377
 20
19.2535360148728
  0
LWPOLYLINE
  5
CE
330
4F
100
AcDbEntity
  8
Skizziergeometrie_ISO_
  6
Continuous
 62
     7
100
AcDbPolyline
 90
        2
 70
     0
 43
0.5
 10
189.655184537377
 20
19.2535360148728
 10
188.7995275176
 20
17.7714945827671
  0
LWPOLYLINE
  5
CF
330
4F
100
AcDbEntity
  8
Skizziergeometrie_ISO_
  6
Continuous
 62
     7
100
AcDbPolyline
 90
        2
 70
     0
 43
0.5
 10
188.510852383006
 20
17.7714945827671
 10
187.655195363229
 20
19.2535360148728
  0
LWPOLYLINE
  5
D0
330
4F
100
AcDbEntity
  8
Skizziergeometrie_ISO_
  6
Continuous
 62
     7
100
AcDbPolyline
 90
        2
 70
     0
 43
0.5
 10
187.655195363229
 20
19.2535360148728
 10
187.655195363229
 20
15.8473707016896
  0
LWPOLYLINE
  5
D1
330
4F
100
AcDbEntity
  8
Skizziergeometrie_ISO_
  6
Continuous
 62
     7
100
AcDbPolyline
 90
        2
 70
     0
 43
0.5
 10
180.238754675162
 20
17.6450043569675
 10
188.655189950303
 20
22.500640092627
  0
LWPOLYLINE
  5
D2
330
4F
100
AcDbEntity
  8
Skizziergeometrie_ISO_
  6
Continuous
 62
     7
100
AcDbPolyline
 90
        2
 70
     0
 43
0.5
 10
188.655189950303
 20
22.500640092627
 10
197.071625225444
 20
17.6450043569675
  0
LWPOLYLINE
  5
D3
330
4F
100
AcDbEntity
  8
Skizziergeometrie_ISO_
  6
Continuous
 62
     7
100
AcDbPolyline
 90
        2
 70
     0
 43
0.5
 10
197.071625225444
 20
17.3562758282849
 10
188.655189950303
 20
12.5006400926254
  0
LWPOLYLINE
  5
D4
330
4F
100
AcDbEntity
  8
Skizziergeometrie_ISO_
  6
Continuous
 62
     7
100
AcDbPolyline
 90
        2
 70
     0
 43
0.5
 10
188.655189950303
 20
12.5006400926254
 10
180.238754675162
 20
17.3562758282849
  0
LWPOLYLINE
  5
D5
330
4F
100
AcDbEntity
  8
Skizziergeometrie_ISO_
  6
Continuous
 62
     7
100
AcDbPolyline
 90
        2
 70
     0
 43
0.5
 10
186.988528696563
 20
15.8473707016896
 10
186.988528696562
 20
20.7526980593071
  0
LWPOLYLINE
  5
D6
330
4F
100
AcDbEntity
  8
Skizziergeometrie_ISO_
  6
Continuous
 62
     7
100
AcDbPolyline
 90
        2
 70
     0
 43
0.5
 10
187.482962380186
 20
20.8851811655447
 10
188.655189950303
 20
18.8548234560689
  0
LWPOLYLINE
  5
D7
330
4F
100
AcDbEntity
  8
Skizziergeometrie_ISO_
  6
Continuous
 62
     7
100
AcDbPolyline
 90
        2
 70
     0
 43
0.5
 10
190.321851204044
 20
14.2880685085818
 10
190.321851204044
 20
20.752698059307
  0
LWPOLYLINE
  5
D8
330
4F
100
AcDbEntity
  8
Skizziergeometrie_ISO_
  6
Continuous
 62
     7
100
AcDbPolyline
 90
        2
 70
     0
 43
0.5
 10
189.82741752042
 20
20.8851811655447
 10
188.655189950303
 20
18.8548234560689
  0
LWPOLYLINE
  5
D9
330
4F
100
AcDbEntity
  8
Skizziergeometrie_ISO_
  6
Continuous
 62
     7
100
AcDbPolyline
 90
        2
 70
     0
 43
0.5
 10
185.655190959106
 20
15.2706619304882
 10
185.655190959106
 20
19.9439783665993
  0
LWPOLYLINE
  5
DA
330
4F
100
AcDbEntity
  8
Skizziergeometrie_ISO_
  6
Continuous
 62
     7
100
AcDbPolyline
 90
        2
 70
     0
 43
0.5
 10
186.321857625773
 20
19.9439783665993
 10
186.321857625773
 20
15.270660658657
  0
LWPOLYLINE
  5
DB
330
4F
100
AcDbEntity
  8
Skizziergeometrie_ISO_
  6
Continuous
 62
     7
100
AcDbPolyline
 90
        2
 70
     0
 43
0.5
 10
186.321857625773
 20
15.270660658657
 10
188.489493932086
 20
14.0201012511681
  0
LWPOLYLINE
  5
DC
330
4F
100
AcDbEntity
  8
Skizziergeometrie_ISO_
  6
Continuous
 62
     7
100
AcDbPolyline
 90
        2
 70
     0
 43
0.5
 10
188.15634562976
 20
13.4426441938023
 10
185.988710425088
 20
14.6932029657285
  0
LWPOLYLINE
  5
DD
330
4F
100
AcDbEntity
  8
Skizziergeometrie_ISO_
  6
Continuous
 62
     7
100
AcDbPolyline
 90
        2
 70
     0
 43
0.5
 10
184.988523283636
 20
19.1539094835628
 10
184.988523283636
 20
15.8473707016896
  0
LWPOLYLINE
  5
DE
330
4F
100
AcDbEntity
  8
Skizziergeometrie_ISO_
  6
Continuous
 62
     7
100
AcDbPolyline
 90
        2
 70
     0
 43
0.5
 10
184.32185661697
 20
15.8473707016896
 10
184.32185661697
 20
19.1539094835628
  0
LWPOLYLINE
  5
DF
330
4F
100
AcDbEntity
  8
Skizziergeometrie_ISO_
  6
Continuous
 62
     7
100
AcDbPolyline
 90
        2
 70
     0
 43
0.5
 10
191.48842975933
 20
20.2327068952822
 10
192.857882489926
 20
19.4426380122457
  0
LWPOLYLINE
  5
E0
330
4F
100
AcDbEntity
  8
Skizziergeometrie_ISO_
  6
Continuous
 62
     7
100
AcDbPolyline
 90
        2
 70
     0
 43
0.5
 10
192.5247341876
 20
18.8651809548799
 10
191.6551889415
 20
19.3668416737836
  0
LWPOLYLINE
  5
E1
330
4F
100
AcDbEntity
  8
Skizziergeometrie_ISO_
  6
Continuous
 62
     7
100
AcDbPolyline
 90
        2
 70
     0
 43
0.5
 10
191.6551889415
 20
19.3668416737836
 10
191.6551889415
 20
17.8339734259596
  0
LWPOLYLINE
  5
E2
330
4F
100
AcDbEntity
  8
Skizziergeometrie_ISO_
  6
Continuous
 62
     7
100
AcDbPolyline
 90
        2
 70
     0
 43
0.5
 10
191.6551889415
 20
17.8339734259596
 10
192.691308338763
 20
17.8339734259596
  0
LWPOLYLINE
  5
E3
330
4F
100
AcDbEntity
  8
Skizziergeometrie_ISO_
  6
Continuous
 62
     7
100
AcDbPolyline
 90
        2
 70
     0
 43
0.5
 10
192.691308338763
 20
17.1673067592928
 10
191.6551889415
 20
17.1673067592928
  0
LWPOLYLINE
  5
E4
330
4F
100
AcDbEntity
  8
Skizziergeometrie_ISO_
  6
Continuous
 62
     7
100
AcDbPolyline
 90
        2
 70
     0
 43
0.5
 10
191.6551889415
 20
17.1673067592928
 10
191.6551889415
 20
15.6344385114688
  0
LWPOLYLINE
  5
E5
330
4F
100
AcDbEntity
  8
Skizziergeometrie_ISO_
  6
Continuous
 62
     7
100
AcDbPolyline
 90
        2
 70
     0
 43
0.5
 10
191.6551889415
 20
15.6344385114688
 10
192.5247341876
 20
16.1360992303725
  0
LWPOLYLINE
  5
E6
330
4F
100
AcDbEntity
  8
Skizziergeometrie_ISO_
  6
Continuous
 62
     7
100
AcDbPolyline
 90
        2
 70
     0
 43
0.5
 10
192.857882489926
 20
15.5586421730067
 10
191.48842975933
 20
14.7685732899702
  0
LWPOLYLINE
  5
E7
330
4F
100
AcDbEntity
  8
Skizziergeometrie_ISO_
  6
Continuous
 62
     7
100
AcDbPolyline
 90
        2
 70
     0
 43
0.5
 10
190.988522274833
 20
15.0573018186531
 10
190.988522274833
 20
19.9439783665993
  0
LWPOLYLINE
  5
E8
330
4F
100
AcDbEntity
  8
Skizziergeometrie_ISO_
  6
Continuous
 62
     7
100
AcDbPolyline
 90
        2
 70
     0
 43
0.5
 10
177.330189950303
 20
25.0006400926262
 10
177.330189950303
 20
10.0006400926262
  0
LWPOLYLINE
  5
E9
330
4F
100
AcDbEntity
  8
Skizziergeometrie_ISO_
  6
Continuous
 62
     7
100
AcDbPolyline
 90
        2
 70
     0
 43
0.5
 10
159.980189950303
 20
25.0006400926262
 10
159.980189950303
 20
10.0006400926262
  0
LWPOLYLINE
  5
EA
330
4F
100
AcDbEntity
  8
Skizziergeometrie_ISO_
  6
Continuous
 62
     7
100
AcDbPolyline
 90
        2
 70
     0
 43
0.5
 10
49.9801899503031
 20
10.0006400926262
 10
49.9801899503031
 20
25.0006400926262
  0
LWPOLYLINE
  5
EB
330
4F
100
AcDbEntity
  8
Skizziergeometrie_ISO_
  6
Continuous
 62
     7
100
AcDbPolyline
 90
        2
 70
     0
 43
0.5
 10
44.980189950303
 20
45.0006400926262
 10
44.980189950303
 20
25.0006400926262
  0
LWPOLYLINE
  5
EC
330
4F
100
AcDbEntity
  8
Skizziergeometrie_ISO_
  6
Continuous
 62
     7
100
AcDbPolyline
 90
        2
 70
     0
 43
0.5
 10
26.980189950303
 20
45.0006400926262
 10
26.980189950303
 20
25.0006400926262
  0
LWPOLYLINE
  5
ED
330
4F
100
AcDbEntity
  8
Skizziergeometrie_ISO_
  6
Continuous
 62
     7
100
AcDbPolyline
 90
        2
 70
     0
 43
0.5
 10
19.980189950303
 20
17.5006400926262
 10
49.9801899503031
 20
17.5006400926262
  0
LWPOLYLINE
  5
EE
330
4F
100
AcDbEntity
  8
Skizziergeometrie_ISO_
  6
Continuous
 62
     7
100
AcDbPolyline
 90
        2
 70
     0
 43
0.5
 10
19.980189950303
 20
25.0006400926262
 10
199.980189950303
 20
25.0006400926262
  0
LWPOLYLINE
  5
EF
330
4F
100
AcDbEntity
  8
Skizziergeometrie_ISO_
  6
Continuous
 62
     7
100
AcDbPolyline
 90
        2
 70
     0
 43
0.5
 10
19.980189950303
 20
30.0006400926262
 10
199.980189950303
 20
30.0006400926262
  0
LWPOLYLINE
  5
F0
330
4F
100
AcDbEntity
  8
Skizziergeometrie_ISO_
  6
Continuous
 62
     7
100
AcDbPolyline
 90
        2
 70
     0
 43
0.5
 10
19.980189950303
 20
35.0006400926262
 10
199.980189950303
 20
35.0006400926262
  0
LWPOLYLINE
  5
F1
330
4F
100
AcDbEntity
  8
Skizziergeometrie_ISO_
  6
Continuous
 62
     7
100
AcDbPolyline
 90
        2
 70
     0
 43
0.5
 10
19.980189950303
 20
40.0006400926262
 10
199.980189950303
 20
40.0006400926262
  0
LWPOLYLINE
  5
F2
330
4F
100
AcDbEntity
  8
Skizziergeometrie_ISO_
  6
Continuous
 62
     7
100
AcDbPolyline
 90
        2
 70
     0
 43
0.5
 10
19.980189950303
 20
45.0006400926262
 10
199.980189950303
 20
45.0006400926262
  0
LWPOLYLINE
  5
F3
330
4F
100
AcDbEntity
  8
Skizziergeometrie_ISO_
  6
Continuous
 62
     7
100
AcDbPolyline
 90
        2
 70
     0
 43
0.5
 10
188.510852383006
 20
17.77149458276709
 42
0.57735026918893
 10
188.7995275176
 20
17.77149458276711
  0
LWPOLYLINE
  5
F4
330
4F
100
AcDbEntity
  8
Skizziergeometrie_ISO_
  6
Continuous
 62
     7
100
AcDbPolyline
 90
        2
 70
     0
 43
0.5
 10
185.655190959106
 20
15.2706619304882
 42
0.26803505952205
 10
185.988710425088
 20
14.6932029657285
  0
LWPOLYLINE
  5
F5
330
4F
100
AcDbEntity
  8
Skizziergeometrie_ISO_
  6
Continuous
 62
     7
100
AcDbPolyline
 90
        2
 70
     0
 43
0.5
 10
180.238754675162
 20
17.6450043569675
 42
0.57756392459859
 10
180.238754675162
 20
17.3562758282849
  0
LWPOLYLINE
  5
F6
330
4F
100
AcDbEntity
  8
Skizziergeometrie_ISO_
  6
Continuous
 62
     7
100
AcDbPolyline
 90
        2
 70
     0
 43
0.5
 10
197.071625225444
 20
17.3562758282849
 42
0.57756392459859
 10
197.071625225444
 20
17.6450043569675
  0
LWPOLYLINE
  5
F7
330
4F
100
AcDbEntity
  8
Skizziergeometrie_ISO_
  6
Continuous
 62
     7
100
AcDbPolyline
 90
        2
 70
     0
 43
0.5
 10
191.48842975933
 20
20.2327068952822
 42
0.57724345630757
 10
190.988522274833
 20
19.9439783665993
  0
LWPOLYLINE
  5
F8
330
4F
100
AcDbEntity
  8
Skizziergeometrie_ISO_
  6
Continuous
 62
     7
100
AcDbPolyline
 90
        2
 70
     0
 43
0.5
 10
190.988522274833
 20
15.0573018186531
 42
0.57724345630757
 10
191.48842975933
 20
14.7685732899702
  0
LWPOLYLINE
  5
F9
330
4F
100
AcDbEntity
  8
Skizziergeometrie_ISO_
  6
Continuous
 62
     7
100
AcDbPolyline
 90
        2
 70
     0
 43
0.5
 10
187.482962380186
 20
20.8851811655447
 42
0.76732698797888
 10
186.988528696562
 20
20.7526980593071
  0
LWPOLYLINE
  5
FA
330
4F
100
AcDbEntity
  8
Skizziergeometrie_ISO_
  6
Continuous
 62
     7
100
AcDbPolyline
 90
        2
 70
     0
 43
0.5
 10
186.988528696563
 20
15.8473707016896
 42
1.0
 10
187.655195363229
 20
15.8473707016896
  0
LWPOLYLINE
  5
FB
330
4F
100
AcDbEntity
  8
Skizziergeometrie_ISO_
  6
Continuous
 62
     7
100
AcDbPolyline
 90
        2
 70
     0
 43
0.5
 10
189.655184537377
 20
14.2880685085818
 42
1.0
 10
190.321851204044
 20
14.2880685085818
  0
LWPOLYLINE
  5
FC
330
4F
100
AcDbEntity
  8
Skizziergeometrie_ISO_
  6
Continuous
 62
     7
100
AcDbPolyline
 90
        2
 70
     0
 43
0.5
 10
190.321851204044
 20
20.752698059307
 42
0.76732698797879
 10
189.82741752042
 20
20.8851811655447
  0
LWPOLYLINE
  5
FD
330
4F
100
AcDbEntity
  8
Skizziergeometrie_ISO_
  6
Continuous
 62
     7
100
AcDbPolyline
 90
        2
 70
     0
 43
0.5
 10
186.321857625773
 20
19.9439783665993
 42
1.0
 10
185.655190959106
 20
19.9439783665993
  0
LWPOLYLINE
  5
FE
330
4F
100
AcDbEntity
  8
Skizziergeometrie_ISO_
  6
Continuous
 62
     7
100
AcDbPolyline
 90
        2
 70
     0
 43
0.5
 10
188.15634562976
 20
13.4426441938023
 42
1.0
 10
188.489493932086
 20
14.0201012511681
  0
LWPOLYLINE
  5
FF
330
4F
100
AcDbEntity
  8
Skizziergeometrie_ISO_
  6
Continuous
 62
     7
100
AcDbPolyline
 90
        2
 70
     0
 43
0.5
 10
184.988523283636
 20
19.1539094835628
 42
1.0
 10
184.32185661697
 20
19.1539094835628
  0
LWPOLYLINE
  5
100
330
4F
100
AcDbEntity
  8
Skizziergeometrie_ISO_
  6
Continuous
 62
     7
100
AcDbPolyline
 90
        2
 70
     0
 43
0.5
 10
184.32185661697
 20
15.8473707016896
 42
1.0
 10
184.988523283636
 20
15.8473707016896
  0
LWPOLYLINE
  5
101
330
4F
100
AcDbEntity
  8
Skizziergeometrie_ISO_
  6
Continuous
 62
     7
100
AcDbPolyline
 90
        2
 70
     0
 43
0.5
 10
192.5247341876
 20
18.8651809548799
 42
1.00000000000005
 10
192.857882489926
 20
19.4426380122457
  0
LWPOLYLINE
  5
102
330
4F
100
AcDbEntity
  8
Skizziergeometrie_ISO_
  6
Continuous
 62
     7
100
AcDbPolyline
 90
        2
 70
     0
 43
0.5
 10
192.691308338763
 20
17.1673067592928
 42
1.0
 10
192.691308338763
 20
17.8339734259596
  0
LWPOLYLINE
  5
103
330
4F
100
AcDbEntity
  8
Skizziergeometrie_ISO_
  6
Continuous
 62
     7
100
AcDbPolyline
 90
        2
 70
     0
 43
0.5
 10
192.857882489926
 20
15.5586421730067
 42
1.00000000000005
 10
192.5247341876
 20
16.1360992303725
  0
MTEXT
  5
105
330
4F
100
AcDbEntity
  8
Symbole_ISO_
 62
     7
100
AcDbMText
 10
39.980189950303
 20
21.2506400926262
 30
0.0
 40
3.49999994039535
 41
0.0
 71
     5
 72
     1
  1
04.01.2007
  7
CONVERTER_12
 73
     1
 44
1.0
  0
MTEXT
  5
107
330
4F
100
AcDbEntity
  8
Symbole_ISO_
 62
     7
100
AcDbMText
 10
168.655189950303
 20
22.5006400926262
 30
0.0
 40
2.5
 41
0.0
 71
     5
 72
     1
  1
Scale
  7
CONVERTER_13
 73
     1
 44
1.0
  0
MTEXT
  5
108
330
4F
100
AcDbEntity
  8
Symbole_ISO_
 62
     7
100
AcDbMText
 10
20.980189950303
 20
13.7506400926262
 30
0.0
 40
2.5
 41
0.0
 71
     4
 72
     1
  1
Sign.
  7
CONVERTER_13
 73
     1
 44
1.0
  0
MTEXT
  5
109
330
4F
100
AcDbEntity
  8
Symbole_ISO_
 62
     7
100
AcDbMText
 10
20.980189950303
 20
21.2506400926262
 30
0.0
 40
2.5
 41
0.0
 71
     4
 72
     1
  1
Date
  7
CONVERTER_13
 73
     1
 44
1.0
  0
HATCH
  5
10A
330
4F
100
AcDbEntity
  8
Schraffur
  6
Continuous
 62
     7
100
AcDbHatch
 10
0.0
 20
0.0
 30
0.0
210
0.0
220
0.0
230
1.0
  2
SOLID
 70
     1
 71
     1
 91
        1
 92
        1
 93
       14
 72
     2
 10
192.691308338763
 20
19.1539094835628
 40
0.3333333333332746
 50
299.9816405763278
 51
479.9816393688208
 73
     0
 72
     1
 10
192.5247341876
 20
18.8651809548799
 11
191.6551889415
 21
19.3668416737836
 72
     1
 10
191.6551889415
 20
19.3668416737836
 11
191.6551889415
 21
17.8339734259596
 72
     1
 10
191.6551889415
 20
17.8339734259596
 11
192.691308338763
 21
17.8339734259596
 72
     2
 10
192.691308338763
 20
17.5006400926262
 40
0.3333333333333997
 50
270.0
 51
450.0
 73
     0
 72
     1
 10
192.691308338763
 20
17.1673067592928
 11
191.6551889415
 21
17.1673067592928
 72
     1
 10
191.6551889415
 20
17.1673067592928
 11
191.6551889415
 21
15.6344385114688
 72
     1
 10
191.6551889415
 20
15.6344385114688
 11
192.5247341876
 21
16.1360992303725
 72
     2
 10
192.691308338763
 20
15.8473707016896
 40
0.3333333333332619
 50
240.0183606311795
 51
420.0183606311837
 73
     0
 72
     1
 10
192.857882489926
 20
15.5586421730067
 11
191.48842975933
 21
14.7685732899702
 72
     2
 10
191.321855608167
 20
15.0573018186531
 40
0.3333333333339965
 50
60.01836063118353
 51
180.0
 73
     0
 72
     1
 10
190.988522274833
 20
15.0573018186531
 11
190.988522274833
 21
19.9439783665993
 72
     2
 10
191.321855608167
 20
19.9439783665993
 40
0.3333333333332604
 50
180.0
 51
299.9816393688164
 73
     0
 72
     1
 10
191.48842975933
 20
20.2327068952822
 11
192.857882489926
 21
19.4426380122457
 97
       14
330
6E
330
AC
330
6F
330
AD
330
70
330
AE
330
71
330
72
330
73
330
AF
330
74
330
75
330
76
330
B0
 75
     0
 76
     1
 98
        1
 10
0.0
 20
0.0
  0
HATCH
  5
10B
330
4F
100
AcDbEntity
  8
Schraffur
  6
Continuous
 62
     7
100
AcDbHatch
 10
0.0
 20
0.0
 30
0.0
210
0.0
220
0.0
230
1.0
  2
SOLID
 70
     1
 71
     1
 91
        1
 92
        1
 93
       13
 72
     2
 10
187.253494909038
 20
20.7526980593071
 40
0.2649662124751274
 50
30.00000000000922
 51
180.0
 73
     1
 72
     1
 10
186.988528696562
 20
20.7526980593071
 11
186.988528696563
 21
15.8473707016896
 72
     2
 10
187.321862029896
 20
15.8473707016896
 40
0.3333333333330017
 50
180.0
 51
360.0
 73
     1
 72
     1
 10
187.655195363229
 20
15.8473707016896
 11
187.655195363229
 21
19.2535360148728
 72
     1
 10
187.655195363229
 20
19.2535360148728
 11
188.510852383006
 21
17.7714945827671
 72
     2
 10
188.655189950303
 20
17.8548279161004
 40
0.1666666666662864
 50
210.0000000000623
 51
329.9999999999426
 73
     1
 72
     1
 10
188.7995275176
 20
17.7714945827671
 11
189.655184537377
 21
19.2535360148728
 72
     1
 10
189.655184537377
 20
19.2535360148728
 11
189.655184537377
 21
14.2880685085818
 72
     2
 10
189.98851787071
 20
14.2880685085818
 40
0.3333333333330017
 50
180.0
 51
360.0
 73
     1
 72
     1
 10
190.321851204044
 20
14.2880685085818
 11
190.321851204044
 21
20.752698059307
 72
     2
 10
190.056884991568
 20
20.752698059307
 40
0.2649662124759971
 50
0.0
 51
149.9999999999752
 73
     1
 72
     1
 10
189.82741752042
 20
20.8851811655447
 11
188.655189950303
 21
18.8548234560689
 72
     1
 10
188.655189950303
 20
18.8548234560689
 11
187.482962380186
 21
20.8851811655447
 97
       13
330
7D
330
B5
330
7C
330
B4
330
7B
330
7A
330
B3
330
79
330
78
330
B2
330
77
330
B1
330
7E
 75
     0
 76
     1
 98
        1
 10
0.0
 20
0.0
  0
HATCH
  5
10C
330
4F
100
AcDbEntity
  8
Schraffur
  6
Continuous
 62
     7
100
AcDbHatch
 10
0.0
 20
0.0
 30
0.0
210
0.0
220
0.0
230
1.0
  2
SOLID
 70
     1
 71
     1
 91
        1
 92
        1
 93
        7
 72
     1
 10
186.321857625773
 20
15.270660658657
 11
186.321857625773
 21
19.9439783665993
 72
     2
 10
185.988524292439
 20
19.9439783665993
 40
0.3333333333339965
 50
0.0
 51
180.0
 73
     1
 72
     1
 10
185.655190959106
 20
19.9439783665993
 11
185.655190959106
 21
15.2706619304882
 72
     2
 10
186.321859827834
 20
15.2706619304882
 40
0.66666886872801
 50
180.0
 51
240.0183606311481
 73
     1
 72
     1
 10
185.988710425088
 20
14.6932029657285
 11
188.15634562976
 21
13.4426441938023
 72
     2
 10
188.322919780923
 20
13.7313727224852
 40
0.3333333333332604
 50
240.0183606311836
 51
420.0183606311837
 73
     1
 72
     1
 10
188.489493932086
 20
14.0201012511681
 11
186.321857625773
 21
15.270660658657
 97
        7
330
B8
330
81
330
B7
330
80
330
B6
330
7F
330
82
 75
     0
 76
     1
 98
        1
 10
0.0
 20
0.0
  0
HATCH
  5
10D
330
4F
100
AcDbEntity
  8
Schraffur
  6
Continuous
 62
     7
100
AcDbHatch
 10
0.0
 20
0.0
 30
0.0
210
0.0
220
0.0
230
1.0
  2
SOLID
 70
     1
 71
     1
 91
        1
 92
        1
 93
        4
 72
     1
 10
184.988523283636
 20
19.1539094835628
 11
184.988523283636
 21
15.8473707016896
 72
     2
 10
184.655189950303
 20
15.8473707016896
 40
0.3333333333330017
 50
0.0
 51
180.0
 73
     0
 72
     1
 10
184.32185661697
 20
15.8473707016896
 11
184.32185661697
 21
19.1539094835628
 72
     2
 10
184.655189950303
 20
19.1539094835628
 40
0.3333333333330017
 50
180.0
 51
360.0
 73
     0
 97
        4
330
83
330
B9
330
84
330
BA
 75
     0
 76
     1
 98
        1
 10
0.0
 20
0.0
  0
ENDBLK
  5
51
330
4F
100
AcDbEntity
  8
0
100
AcDbBlockEnd
  0
BLOCK
  5
53
330
52
100
AcDbEntity
  8
0
100
AcDbBlockBegin
  2
Ränder_Ilme_Rahmen_A4_quer
 70
     0
 10
0.0
 20
0.0
 30
0.0
  3
Ränder_Ilme_Rahmen_A4_quer
  1

  0
LWPOLYLINE
  5
113
330
52
100
AcDbEntity
  8
Skizziergeometrie_ISO_
  6
Continuous
 62
     7
100
AcDbPolyline
 90
        2
 70
     0
 43
0.5
 10
287.0
 20
190.0
 10
287.0
 20
10.0
  0
LWPOLYLINE
  5
114
330
52
100
AcDbEntity
  8
Skizziergeometrie_ISO_
  6
Continuous
 62
     7
100
AcDbPolyline
 90
        2
 70
     0
 43
0.5
 10
148.5
 20
210.0
 10
148.5
 20
196.0
  0
LWPOLYLINE
  5
115
330
52
100
AcDbEntity
  8
Skizziergeometrie_ISO_
  6
Continuous
 62
     7
100
AcDbPolyline
 90
        2
 70
     0
 43
0.5
 10
9.99999999999998
 20
9.99999999999995
 10
287.0
 20
10.0
  0
LWPOLYLINE
  5
116
330
52
100
AcDbEntity
  8
Skizziergeometrie_ISO_
  6
Continuous
 62
     7
100
AcDbPolyline
 90
        2
 70
     0
 43
0.5
 10
10.0
 20
190.0
 10
287.0
 20
190.0
  0
LWPOLYLINE
  5
117
330
52
100
AcDbEntity
  8
Skizziergeometrie_ISO_
  6
Continuous
 62
     7
100
AcDbPolyline
 90
        2
 70
     0
 43
0.5
 10
9.99999999999998
 20
9.99999999999995
 10
10.0
 20
190.0
  0
MTEXT
  5
118
330
52
100
AcDbEntity
  8
Symbole_ISO_
 62
     7
100
AcDbMText
 10
148.5
 20
196.0
 30
0.0
 40
3.5
 41
0.0
 71
     2
 72
     1
  1
Diritti riservati     All rights reseved
  7
CONVERTER_13
 73
     1
 44
1.0
  0
ENDBLK
  5
54
330
52
100
AcDbEntity
  8
0
100
AcDbBlockEnd
  0
BLOCK
  5
37B
330
374
100
AcDbEntity
  8
0
100
AcDbBlockBegin
  2
*D4
 70
     1
 10
0.0
 20
0.0
 30
0.0
  3
*D4
  1

  0
LINE
  5
375
330
374
100
AcDbEntity
  8
Bemaßungen_TC_020513_DIN_
  6
Continuous
 62
     7
100
AcDbLine
 10
155.7600231045205
 20
169.4618047797641
 30
0.0
 11
155.7600231045205
 21
299.4618047797641
 31
0.0
  0
LINE
  5
376
330
374
100
AcDbEntity
  8
Bemaßungen_TC_020513_DIN_
  6
Continuous
 62
     7
100
AcDbLine
 10
125.76002310452
 20
169.4618047797641
 30
0.0
 11
159.7600231045205
 21
169.4618047797641
 31
0.0
  0
LINE
  5
377
330
374
100
AcDbEntity
  8
Bemaßungen_TC_020513_DIN_
  6
Continuous
 62
     7
100
AcDbLine
 10
125.76002310452
 20
299.4618047797641
 30
0.0
 11
159.7600231045205
 21
299.4618047797641
 31
0.0
  0
SOLID
  5
378
330
374
100
AcDbEntity
  8
Bemaßungen_TC_020513_DIN_
 62
     7
100
AcDbTrace
 10
155.1017606165836
 20
174.4618047797641
 30
0.0
 11
156.4182855924575
 21
174.4618047797641
 31
0.0
 12
155.7600231045205
 22
169.4618047797641
 32
0.0
 13
155.7600231045205
 23
169.4618047797641
 33
0.0
  0
SOLID
  5
379
330
374
100
AcDbEntity
  8
Bemaßungen_TC_020513_DIN_
 62
     7
100
AcDbTrace
 10
156.4182855924575
 20
294.4618047797641
 30
0.0
 11
155.1017606165836
 21
294.4618047797641
 31
0.0
 12
155.7600231045205
 22
299.4618047797641
 32
0.0
 13
155.7600231045205
 23
299.4618047797641
 33
0.0
  0
MTEXT
  5
37A
330
374
100
AcDbEntity
  8
Bemaßungen_TC_020513_DIN_
 62
     7
100
AcDbMText
 10
150.4375746374425
 20
231.2469298366087
 30
0.0
 40
7.0
 41
0.0
 71
     7
 72
     1
  1
130
  7
CONVERTER_16
 11
0.0
 21
1.0
 31
0.0
 73
     1
 44
0.60024009603842
  0
ENDBLK
  5
37C
330
374
100
AcDbEntity
  8
0
100
AcDbBlockEnd
  0
BLOCK
  5
386
330
37F
100
AcDbEntity
  8
0
100
AcDbBlockBegin
  2
*D5
 70
     1
 10
0.0
 20
0.0
 30
0.0
  3
*D5
  1

  0
LINE
  5
380
330
37F
100
AcDbEntity
  8
Bemaßungen_TC_020513_DIN_
  6
Continuous
 62
     7
100
AcDbLine
 10
123.76002310452
 20
319.4618152153664
 30
0.0
 11
91.7600231045204
 21
319.4618152153664
 31
0.0
  0
LINE
  5
381
330
37F
100
AcDbEntity
  8
Bemaßungen_TC_020513_DIN_
  6
Continuous
 62
     7
100
AcDbLine
 10
123.76002310452
 20
301.4618047797641
 30
0.0
 11
123.76002310452
 21
323.4618152153664
 31
0.0
  0
LINE
  5
382
330
37F
100
AcDbEntity
  8
Bemaßungen_TC_020513_DIN_
  6
Continuous
 62
     7
100
AcDbLine
 10
91.7600231045204
 20
301.4618047797641
 30
0.0
 11
91.7600231045204
 21
323.4618152153664
 31
0.0
  0
SOLID
  5
383
330
37F
100
AcDbEntity
  8
Bemaßungen_TC_020513_DIN_
 62
     7
100
AcDbTrace
 10
118.76002310452
 20
318.8035527274294
 30
0.0
 11
118.76002310452
 21
320.1200777033033
 31
0.0
 12
123.76002310452
 22
319.4618152153664
 32
0.0
 13
123.76002310452
 23
319.4618152153664
 33
0.0
  0
SOLID
  5
384
330
37F
100
AcDbEntity
  8
Bemaßungen_TC_020513_DIN_
 62
     7
100
AcDbTrace
 10
96.7600231045204
 20
320.1200777033033
 30
0.0
 11
96.7600231045204
 21
318.8035527274294
 31
0.0
 12
91.7600231045204
 22
319.4618152153664
 32
0.0
 13
91.7600231045204
 23
319.4618152153664
 33
0.0
  0
MTEXT
  5
385
330
37F
100
AcDbEntity
  8
Bemaßungen_TC_020513_DIN_
 62
     7
100
AcDbMText
 10
105.6429197659191
 20
324.7842462614936
 30
0.0
 40
7.0
 41
0.0
 71
     7
 72
     1
  1
32
  7
CONVERTER_16
 11
0.9999999999882478
 21
4.848136811095759E-6
 31
0.0
 73
     1
 44
0.60024009603842
  0
ENDBLK
  5
387
330
37F
100
AcDbEntity
  8
0
100
AcDbBlockEnd
  0
BLOCK
  5
391
330
38A
100
AcDbEntity
  8
0
100
AcDbBlockBegin
  2
*D6
 70
     1
 10
0.0
 20
0.0
 30
0.0
  3
*D6
  1

  0
LINE
  5
38B
330
38A
100
AcDbEntity
  8
Bemaßungen_TC_020513_DIN_
  6
Continuous
 62
     7
100
AcDbLine
 10
68.59833156223189
 20
178.4618047797639
 30
0.0
 11
68.59833156223189
 21
290.4618047797639
 31
0.0
  0
LINE
  5
38C
330
38A
100
AcDbEntity
  8
Bemaßungen_TC_020513_DIN_
  6
Continuous
 62
     7
100
AcDbLine
 10
87.26002310452041
 20
178.4618047797639
 30
0.0
 11
64.5983315622319
 21
178.4618047797639
 31
0.0
  0
LINE
  5
38D
330
38A
100
AcDbEntity
  8
Bemaßungen_TC_020513_DIN_
  6
Continuous
 62
     7
100
AcDbLine
 10
87.26002310452041
 20
290.4618047797639
 30
0.0
 11
64.5983315622319
 21
290.4618047797639
 31
0.0
  0
SOLID
  5
38E
330
38A
100
AcDbEntity
  8
Bemaßungen_TC_020513_DIN_
 62
     7
100
AcDbTrace
 10
67.94006907429491
 20
183.4618047797639
 30
0.0
 11
69.25659405016887
 21
183.4618047797639
 31
0.0
 12
68.59833156223189
 22
178.4618047797639
 32
0.0
 13
68.59833156223189
 23
178.4618047797639
 33
0.0
  0
SOLID
  5
38F
330
38A
100
AcDbEntity
  8
Bemaßungen_TC_020513_DIN_
 62
     7
100
AcDbTrace
 10
69.25659405016887
 20
285.4618047797639
 30
0.0
 11
67.94006907429491
 21
285.4618047797639
 31
0.0
 12
68.59833156223189
 22
290.4618047797639
 32
0.0
 13
68.59833156223189
 23
290.4618047797639
 33
0.0
  0
MTEXT
  5
390
330
38A
100
AcDbEntity
  8
Bemaßungen_TC_020513_DIN_
 62
     7
100
AcDbMText
 10
64.04682714706351
 20
231.9466249777556
 30
0.0
 40
7.0
 41
0.0
 71
     7
 72
     1
  1
112
  7
CONVERTER_16
 11
0.0
 21
1.0
 31
0.0
 73
     1
 44
0.60024009603842
  0
ENDBLK
  5
392
330
38A
100
AcDbEntity
  8
0
100
AcDbBlockEnd
  0
BLOCK
  5
39C
330
395
100
AcDbEntity
  8
0
100
AcDbBlockBegin
  2
*D7
 70
     1
 10
0.0
 20
0.0
 30
0.0
  3
*D7
  1

  0
LINE
  5
396
330
395
100
AcDbEntity
  8
Bemaßungen_TC_020513_DIN_
  6
Continuous
 62
     7
100
AcDbLine
 10
126.26002310452
 20
135.123506757655
 30
0.0
 11
89.2600231045204
 21
135.123506757655
 31
0.0
  0
LINE
  5
397
330
395
100
AcDbEntity
  8
Bemaßungen_TC_020513_DIN_
  6
Continuous
 62
     7
100
AcDbLine
 10
126.26002310452
 20
176.4618047797641
 30
0.0
 11
126.26002310452
 21
131.123506757655
 31
0.0
  0
LINE
  5
398
330
395
100
AcDbEntity
  8
Bemaßungen_TC_020513_DIN_
  6
Continuous
 62
     7
100
AcDbLine
 10
89.2600231045204
 20
176.4618047797641
 30
0.0
 11
89.2600231045204
 21
131.123506757655
 31
0.0
  0
SOLID
  5
399
330
395
100
AcDbEntity
  8
Bemaßungen_TC_020513_DIN_
 62
     7
100
AcDbTrace
 10
121.26002310452
 20
134.465244269718
 30
0.0
 11
121.26002310452
 21
135.781769245592
 31
0.0
 12
126.26002310452
 22
135.123506757655
 32
0.0
 13
126.26002310452
 23
135.123506757655
 33
0.0
  0
SOLID
  5
39A
330
395
100
AcDbEntity
  8
Bemaßungen_TC_020513_DIN_
 62
     7
100
AcDbTrace
 10
94.2600231045204
 20
135.781769245592
 30
0.0
 11
94.2600231045204
 21
134.465244269718
 31
0.0
 12
89.2600231045204
 22
135.123506757655
 32
0.0
 13
89.2600231045204
 23
135.123506757655
 33
0.0
  0
MTEXT
  5
39B
330
395
100
AcDbEntity
  8
Bemaßungen_TC_020513_DIN_
 62
     7
100
AcDbMText
 10
105.5721080333142
 20
139.7842461766512
 30
0.0
 40
7.0
 41
0.0
 71
     7
 72
     1
  1
37
  7
CONVERTER_16
 11
0.9999999999882478
 21
4.848136811095759E-6
 31
0.0
 73
     1
 44
0.60024009603842
  0
ENDBLK
  5
39D
330
395
100
AcDbEntity
  8
0
100
AcDbBlockEnd
  0
BLOCK
  5
3A7
330
3A0
100
AcDbEntity
  8
0
100
AcDbBlockBegin
  2
*D8
 70
     1
 10
0.0
 20
0.0
 30
0.0
  3
*D8
  1

  0
LINE
  5
3A1
330
3A0
100
AcDbEntity
  8
Bemaßungen_TC_020513_DIN_
  6
Continuous
 62
     7
100
AcDbLine
 10
436.576690393422
 20
260.5920656755008
 30
0.0
 11
511.576690393428
 21
260.5920656755008
 31
0.0
  0
LINE
  5
3A2
330
3A0
100
AcDbEntity
  8
Bemaßungen_TC_020513_DIN_
  6
Continuous
 62
     7
100
AcDbLine
 10
436.576690393422
 20
230.592055239899
 30
0.0
 11
436.576690393422
 21
264.5920656755008
 31
0.0
  0
LINE
  5
3A3
330
3A0
100
AcDbEntity
  8
Bemaßungen_TC_020513_DIN_
  6
Continuous
 62
     7
100
AcDbLine
 10
511.576690393428
 20
171.592055239899
 30
0.0
 11
511.576690393428
 21
264.5920656755008
 31
0.0
  0
SOLID
  5
3A4
330
3A0
100
AcDbEntity
  8
Bemaßungen_TC_020513_DIN_
 62
     7
100
AcDbTrace
 10
441.576690393422
 20
261.2503281634378
 30
0.0
 11
441.576690393422
 21
259.9338031875639
 31
0.0
 12
436.576690393422
 22
260.5920656755008
 32
0.0
 13
436.576690393422
 23
260.5920656755008
 33
0.0
  0
SOLID
  5
3A5
330
3A0
100
AcDbEntity
  8
Bemaßungen_TC_020513_DIN_
 62
     7
100
AcDbTrace
 10
506.576690393428
 20
259.9338031875639
 30
0.0
 11
506.576690393428
 21
261.2503281634378
 31
0.0
 12
511.576690393428
 22
260.5920656755008
 32
0.0
 13
511.576690393428
 23
260.5920656755008
 33
0.0
  0
MTEXT
  5
3A6
330
3A0
100
AcDbEntity
  8
Bemaßungen_TC_020513_DIN_
 62
     7
100
AcDbMText
 10
471.8887752377979
 20
265.8810723530201
 30
0.0
 40
7.0
 41
0.0
 71
     7
 72
     1
  1
75
  7
CONVERTER_16
 11
0.9999999999882478
 21
4.848136811095759E-6
 31
0.0
 73
     1
 44
0.60024009603842
  0
ENDBLK
  5
3A8
330
3A0
100
AcDbEntity
  8
0
100
AcDbBlockEnd
  0
BLOCK
  5
3B2
330
3AB
100
AcDbEntity
  8
0
100
AcDbBlockBegin
  2
*D9
 70
     1
 10
0.0
 20
0.0
 30
0.0
  3
*D9
  1

  0
LINE
  5
3AC
330
3AB
100
AcDbEntity
  8
Bemaßungen_TC_020513_DIN_
  6
Continuous
 62
     7
100
AcDbLine
 10
557.0766903934177
 20
147.842055239899
 30
0.0
 11
557.0766903934177
 21
176.842055239899
 31
0.0
  0
LINE
  5
3AD
330
3AB
100
AcDbEntity
  8
Bemaßungen_TC_020513_DIN_
  6
Continuous
 62
     7
100
AcDbLine
 10
503.0766903934181
 20
147.842055239899
 30
0.0
 11
561.0766903934177
 21
147.842055239899
 31
0.0
  0
LINE
  5
3AE
330
3AB
100
AcDbEntity
  8
Bemaßungen_TC_020513_DIN_
  6
Continuous
 62
     7
100
AcDbLine
 10
501.326690393421
 20
176.842055239899
 30
0.0
 11
561.0766903934177
 21
176.842055239899
 31
0.0
  0
SOLID
  5
3AF
330
3AB
100
AcDbEntity
  8
Bemaßungen_TC_020513_DIN_
 62
     7
100
AcDbTrace
 10
556.4184279054807
 20
152.842055239899
 30
0.0
 11
557.7349528813547
 21
152.842055239899
 31
0.0
 12
557.0766903934177
 22
147.842055239899
 32
0.0
 13
557.0766903934177
 23
147.842055239899
 33
0.0
  0
SOLID
  5
3B0
330
3AB
100
AcDbEntity
  8
Bemaßungen_TC_020513_DIN_
 62
     7
100
AcDbTrace
 10
557.7349528813547
 20
171.842055239899
 30
0.0
 11
556.4184279054807
 21
171.842055239899
 31
0.0
 12
557.0766903934177
 22
176.842055239899
 32
0.0
 13
557.0766903934177
 23
176.842055239899
 33
0.0
  0
MTEXT
  5
3B1
330
3AB
100
AcDbEntity
  8
Bemaßungen_TC_020513_DIN_
 62
     7
100
AcDbMText
 10
551.7590168240205
 20
160.0848974408993
 30
0.0
 40
7.0
 41
0.0
 71
     7
 72
     1
  1
29
  7
CONVERTER_16
 11
0.0
 21
1.0
 31
0.0
 73
     1
 44
0.60024009603842
  0
ENDBLK
  5
3B3
330
3AB
100
AcDbEntity
  8
0
100
AcDbBlockEnd
  0
BLOCK
  5
3BF
330
3B6
100
AcDbEntity
  8
0
100
AcDbBlockBegin
  2
*D10
 70
     1
 10
0.0
 20
0.0
 30
0.0
  3
*D10
  1

  0
LINE
  5
3B7
330
3B6
100
AcDbEntity
  8
Bemaßungen_TC_020513_DIN_
  6
Continuous
 62
     7
100
AcDbLine
 10
533.0766903934176
 20
133.089954284919
 30
0.0
 11
533.0766903934176
 21
147.842055239899
 31
0.0
  0
LINE
  5
3B8
330
3B6
100
AcDbEntity
  8
Bemaßungen_TC_020513_DIN_
  6
Continuous
 62
     7
100
AcDbLine
 10
533.0766903934176
 20
147.842055239899
 30
0.0
 11
533.0766903934176
 21
153.842055239899
 31
0.0
  0
LINE
  5
3B9
330
3B6
100
AcDbEntity
  8
Bemaßungen_TC_020513_DIN_
  6
Continuous
 62
     7
100
AcDbLine
 10
533.0766903934176
 20
153.842055239899
 30
0.0
 11
533.0766903934176
 21
163.842055239899
 31
0.0
  0
LINE
  5
3BA
330
3B6
100
AcDbEntity
  8
Bemaßungen_TC_020513_DIN_
  6
Continuous
 62
     7
100
AcDbLine
 10
503.0766903934181
 20
147.842055239899
 30
0.0
 11
537.0766903934176
 21
147.842055239899
 31
0.0
  0
LINE
  5
3BB
330
3B6
100
AcDbEntity
  8
Bemaßungen_TC_020513_DIN_
  6
Continuous
 62
     7
100
AcDbLine
 10
503.0766903934181
 20
153.842055239899
 30
0.0
 11
537.0766903934176
 21
153.842055239899
 31
0.0
  0
SOLID
  5
3BC
330
3B6
100
AcDbEntity
  8
Bemaßungen_TC_020513_DIN_
 62
     7
100
AcDbTrace
 10
533.7349528813546
 20
142.842055239899
 30
0.0
 11
532.4184279054806
 21
142.842055239899
 31
0.0
 12
533.0766903934176
 22
147.842055239899
 32
0.0
 13
533.0766903934176
 23
147.842055239899
 33
0.0
  0
SOLID
  5
3BD
330
3B6
100
AcDbEntity
  8
Bemaßungen_TC_020513_DIN_
 62
     7
100
AcDbTrace
 10
532.4184279054806
 20
158.842055239899
 30
0.0
 11
533.7349528813546
 21
158.842055239899
 31
0.0
 12
533.0766903934176
 22
153.842055239899
 32
0.0
 13
533.0766903934176
 23
153.842055239899
 33
0.0
  0
MTEXT
  5
3BE
330
3B6
100
AcDbEntity
  8
Bemaßungen_TC_020513_DIN_
 62
     7
100
AcDbMText
 10
527.7590168240205
 20
133.089954284919
 30
0.0
 40
7.0
 41
0.0
 71
     7
 72
     1
  1
6
  7
CONVERTER_16
 11
0.0
 21
1.0
 31
0.0
 73
     1
 44
0.60024009603842
  0
ENDBLK
  5
3C0
330
3B6
100
AcDbEntity
  8
0
100
AcDbBlockEnd
  0
BLOCK
  5
3CA
330
3C3
100
AcDbEntity
  8
0
100
AcDbBlockBegin
  2
*D11
 70
     1
 10
0.0
 20
0.0
 30
0.0
  3
*D11
  1

  0
LINE
  5
3C4
330
3C3
100
AcDbEntity
  8
Bemaßungen_TC_020513_DIN_
  6
Continuous
 62
     7
100
AcDbLine
 10
506.076690393419
 20
115.8420761111149
 30
0.0
 11
460.576690393419
 21
115.8420761111149
 31
0.0
  0
LINE
  5
3C5
330
3C3
100
AcDbEntity
  8
Bemaßungen_TC_020513_DIN_
  6
Continuous
 62
     7
100
AcDbLine
 10
506.076690393419
 20
145.842055239899
 30
0.0
 11
506.076690393419
 21
111.8420761111149
 31
0.0
  0
LINE
  5
3C6
330
3C3
100
AcDbEntity
  8
Bemaßungen_TC_020513_DIN_
  6
Continuous
 62
     7
100
AcDbLine
 10
460.576690393419
 20
145.842055239899
 30
0.0
 11
460.576690393419
 21
111.8420761111149
 31
0.0
  0
SOLID
  5
3C7
330
3C3
100
AcDbEntity
  8
Bemaßungen_TC_020513_DIN_
 62
     7
100
AcDbTrace
 10
501.076690393419
 20
115.1838136231779
 30
0.0
 11
501.076690393419
 21
116.5003385990519
 31
0.0
 12
506.076690393419
 22
115.8420761111149
 32
0.0
 13
506.076690393419
 23
115.8420761111149
 33
0.0
  0
SOLID
  5
3C8
330
3C3
100
AcDbEntity
  8
Bemaßungen_TC_020513_DIN_
 62
     7
100
AcDbTrace
 10
465.576690393419
 20
116.5003385990519
 30
0.0
 11
465.576690393419
 21
115.1838136231779
 31
0.0
 12
460.576690393419
 22
115.8420761111149
 32
0.0
 13
460.576690393419
 23
115.8420761111149
 33
0.0
  0
MTEXT
  5
3C9
330
3C3
100
AcDbEntity
  8
Bemaßungen_TC_020513_DIN_
 62
     7
100
AcDbMText
 10
480.3331691933321
 20
123.4411907865064
 30
0.0
 40
7.0
 41
0.0
 71
     7
 72
     1
  1
45,5
  7
CONVERTER_16
 11
0.9999999999882478
 21
4.848136811095759E-6
 31
0.0
 73
     1
 44
0.60024009603842
  0
ENDBLK
  5
3CB
330
3C3
100
AcDbEntity
  8
0
100
AcDbBlockEnd
  0
BLOCK
  5
3D5
330
3CE
100
AcDbEntity
  8
0
100
AcDbBlockBegin
  2
*D12
 70
     1
 10
0.0
 20
0.0
 30
0.0
  3
*D12
  1

  0
LINE
  5
3CF
330
3CE
100
AcDbEntity
  8
Bemaßungen_TC_020513_DIN_
  6
Continuous
 62
     7
100
AcDbLine
 10
372.933137379857
 20
115.8420813289224
 30
0.0
 11
230.433137379857
 21
115.8420813289224
 31
0.0
  0
LINE
  5
3D0
330
3CE
100
AcDbEntity
  8
Bemaßungen_TC_020513_DIN_
  6
Continuous
 62
     7
100
AcDbLine
 10
372.933137379857
 20
145.842055239899
 30
0.0
 11
372.933137379857
 21
111.8420813289224
 31
0.0
  0
LINE
  5
3D1
330
3CE
100
AcDbEntity
  8
Bemaßungen_TC_020513_DIN_
  6
Continuous
 62
     7
100
AcDbLine
 10
230.433137379857
 20
145.842055239899
 30
0.0
 11
230.433137379857
 21
111.8420813289224
 31
0.0
  0
SOLID
  5
3D2
330
3CE
100
AcDbEntity
  8
Bemaßungen_TC_020513_DIN_
 62
     7
100
AcDbTrace
 10
367.933137379857
 20
115.1838188409855
 30
0.0
 11
367.933137379857
 21
116.5003438168594
 31
0.0
 12
372.933137379857
 22
115.8420813289224
 32
0.0
 13
372.933137379857
 23
115.8420813289224
 33
0.0
  0
SOLID
  5
3D3
330
3CE
100
AcDbEntity
  8
Bemaßungen_TC_020513_DIN_
 62
     7
100
AcDbTrace
 10
235.433137379857
 20
116.5003438168594
 30
0.0
 11
235.433137379857
 21
115.1838188409855
 31
0.0
 12
230.433137379857
 22
115.8420813289224
 32
0.0
 13
230.433137379857
 23
115.8420813289224
 33
0.0
  0
MTEXT
  5
3D4
330
3CE
100
AcDbEntity
  8
Bemaßungen_TC_020513_DIN_
 62
     7
100
AcDbMText
 10
297.793972747677
 20
123.4698364960876
 30
0.0
 40
7.0
 41
0.0
 71
     7
 72
     1
  1
142,5
  7
CONVERTER_16
 11
0.9999999999882478
 21
4.848136811095759E-6
 31
0.0
 73
     1
 44
0.60024009603842
  0
ENDBLK
  5
3D6
330
3CE
100
AcDbEntity
  8
0
100
AcDbBlockEnd
  0
ENDSEC
  0
SECTION
  2
ENTITIES
  0
INSERT
  5
55
330
1F
100
AcDbEntity
  8
Bemaßungen_TC_020513_DIN_
100
AcDbBlockReference
  2
_D19
 10
0.0
 20
0.0
 30
0.0
  0
INSERT
  5
56
330
1F
100
AcDbEntity
  8
0
100
AcDbBlockReference
  2
Schriftfelder_Ilme
 10
174.039620099394
 20
-0.0012801852525
 30
0.0
 41
2.0
 42
2.0
 43
2.0
  0
INSERT
  5
57
330
1F
100
AcDbEntity
  8
0
100
AcDbBlockReference
  2
Ränder_Ilme_Rahmen_A4_quer
 10
0.0
 20
0.0
 30
0.0
 41
2.0
 42
2.0
 43
2.0
  0
POINT
  5
119
330
1F
100
AcDbEntity
  8
Bemaßungen_TC_020513_DIN_
 62
     7
100
AcDbPoint
 10
123.76002310452
 20
169.461804779764
 30
0.0
  0
POINT
  5
11A
330
1F
100
AcDbEntity
  8
Bemaßungen_TC_020513_DIN_
 62
     7
100
AcDbPoint
 10
123.76002310452
 20
299.461804779764
 30
0.0
  0
POINT
  5
11B
330
1F
100
AcDbEntity
  8
Bemaßungen_TC_020513_DIN_
 62
     7
100
AcDbPoint
 10
123.76002310452
 20
299.461804779764
 30
0.0
  0
POINT
  5
11C
330
1F
100
AcDbEntity
  8
Bemaßungen_TC_020513_DIN_
 62
     7
100
AcDbPoint
 10
91.7600231045204
 20
299.461804779764
 30
0.0
  0
POINT
  5
11D
330
1F
100
AcDbEntity
  8
Bemaßungen_TC_020513_DIN_
 62
     7
100
AcDbPoint
 10
89.2600231045204
 20
178.461804779764
 30
0.0
  0
POINT
  5
11E
330
1F
100
AcDbEntity
  8
Bemaßungen_TC_020513_DIN_
 62
     7
100
AcDbPoint
 10
89.2600231045204
 20
290.461804779764
 30
0.0
  0
POINT
  5
11F
330
1F
100
AcDbEntity
  8
Bemaßungen_TC_020513_DIN_
 62
     7
100
AcDbPoint
 10
126.26002310452
 20
178.461804779764
 30
0.0
  0
POINT
  5
120
330
1F
100
AcDbEntity
  8
Bemaßungen_TC_020513_DIN_
 62
     7
100
AcDbPoint
 10
89.2600231045204
 20
178.461804779764
 30
0.0
  0
POINT
  5
121
330
1F
100
AcDbEntity
  8
Bemaßungen_TC_020513_DIN_
 62
     7
100
AcDbPoint
 10
436.576690393422
 20
228.592055239899
 30
0.0
  0
POINT
  5
122
330
1F
100
AcDbEntity
  8
Bemaßungen_TC_020513_DIN_
 62
     7
100
AcDbPoint
 10
511.576690393428
 20
169.592055239899
 30
0.0
  0
POINT
  5
123
330
1F
100
AcDbEntity
  8
Bemaßungen_TC_020513_DIN_
 62
     7
100
AcDbPoint
 10
501.076690393418
 20
147.842055239899
 30
0.0
  0
POINT
  5
124
330
1F
100
AcDbEntity
  8
Bemaßungen_TC_020513_DIN_
 62
     7
100
AcDbPoint
 10
499.326690393421
 20
176.842055239899
 30
0.0
  0
POINT
  5
125
330
1F
100
AcDbEntity
  8
Bemaßungen_TC_020513_DIN_
 62
     7
100
AcDbPoint
 10
501.076690393418
 20
147.842055239899
 30
0.0
  0
POINT
  5
126
330
1F
100
AcDbEntity
  8
Bemaßungen_TC_020513_DIN_
 62
     7
100
AcDbPoint
 10
501.076690393418
 20
153.842055239899
 30
0.0
  0
POINT
  5
127
330
1F
100
AcDbEntity
  8
Bemaßungen_TC_020513_DIN_
 62
     7
100
AcDbPoint
 10
506.076690393419
 20
147.842055239899
 30
0.0
  0
POINT
  5
128
330
1F
100
AcDbEntity
  8
Bemaßungen_TC_020513_DIN_
 62
     7
100
AcDbPoint
 10
460.576690393419
 20
147.842055239899
 30
0.0
  0
POINT
  5
129
330
1F
100
AcDbEntity
  8
Bemaßungen_TC_020513_DIN_
 62
     7
100
AcDbPoint
 10
372.933137379857
 20
147.842055239899
 30
0.0
  0
POINT
  5
12A
330
1F
100
AcDbEntity
  8
Bemaßungen_TC_020513_DIN_
 62
     7
100
AcDbPoint
 10
230.433137379857
 20
147.842055239899
 30
0.0
  0
POINT
  5
12B
330
1F
100
AcDbEntity
  8
Bemaßungen_TC_020513_DIN_
 62
     7
100
AcDbPoint
 10
123.76002310452
 20
169.461804779764
 30
0.0
  0
POINT
  5
12C
330
1F
100
AcDbEntity
  8
Bemaßungen_TC_020513_DIN_
 62
     7
100
AcDbPoint
 10
123.76002310452
 20
299.461804779764
 30
0.0
  0
POINT
  5
12D
330
1F
100
AcDbEntity
  8
Bemaßungen_TC_020513_DIN_
 62
     7
100
AcDbPoint
 10
123.76002310452
 20
299.461804779764
 30
0.0
  0
POINT
  5
12E
330
1F
100
AcDbEntity
  8
Bemaßungen_TC_020513_DIN_
 62
     7
100
AcDbPoint
 10
91.7600231045204
 20
299.461804779764
 30
0.0
  0
POINT
  5
12F
330
1F
100
AcDbEntity
  8
Bemaßungen_TC_020513_DIN_
 62
     7
100
AcDbPoint
 10
89.2600231045204
 20
178.461804779764
 30
0.0
  0
POINT
  5
130
330
1F
100
AcDbEntity
  8
Bemaßungen_TC_020513_DIN_
 62
     7
100
AcDbPoint
 10
89.2600231045204
 20
290.461804779764
 30
0.0
  0
POINT
  5
131
330
1F
100
AcDbEntity
  8
Bemaßungen_TC_020513_DIN_
 62
     7
100
AcDbPoint
 10
126.26002310452
 20
178.461804779764
 30
0.0
  0
POINT
  5
132
330
1F
100
AcDbEntity
  8
Bemaßungen_TC_020513_DIN_
 62
     7
100
AcDbPoint
 10
89.2600231045204
 20
178.461804779764
 30
0.0
  0
POINT
  5
133
330
1F
100
AcDbEntity
  8
Bemaßungen_TC_020513_DIN_
 62
     7
100
AcDbPoint
 10
436.576690393422
 20
228.592055239899
 30
0.0
  0
POINT
  5
134
330
1F
100
AcDbEntity
  8
Bemaßungen_TC_020513_DIN_
 62
     7
100
AcDbPoint
 10
511.576690393428
 20
169.592055239899
 30
0.0
  0
POINT
  5
135
330
1F
100
AcDbEntity
  8
Bemaßungen_TC_020513_DIN_
 62
     7
100
AcDbPoint
 10
501.076690393418
 20
147.842055239899
 30
0.0
  0
POINT
  5
136
330
1F
100
AcDbEntity
  8
Bemaßungen_TC_020513_DIN_
 62
     7
100
AcDbPoint
 10
499.326690393421
 20
176.842055239899
 30
0.0
  0
POINT
  5
137
330
1F
100
AcDbEntity
  8
Bemaßungen_TC_020513_DIN_
 62
     7
100
AcDbPoint
 10
501.076690393418
 20
147.842055239899
 30
0.0
  0
POINT
  5
138
330
1F
100
AcDbEntity
  8
Bemaßungen_TC_020513_DIN_
 62
     7
100
AcDbPoint
 10
501.076690393418
 20
153.842055239899
 30
0.0
  0
POINT
  5
139
330
1F
100
AcDbEntity
  8
Bemaßungen_TC_020513_DIN_
 62
     7
100
AcDbPoint
 10
506.076690393419
 20
147.842055239899
 30
0.0
  0
POINT
  5
13A
330
1F
100
AcDbEntity
  8
Bemaßungen_TC_020513_DIN_
 62
     7
100
AcDbPoint
 10
460.576690393419
 20
147.842055239899
 30
0.0
  0
POINT
  5
13B
330
1F
100
AcDbEntity
  8
Bemaßungen_TC_020513_DIN_
 62
     7
100
AcDbPoint
 10
372.933137379857
 20
147.842055239899
 30
0.0
  0
POINT
  5
13C
330
1F
100
AcDbEntity
  8
Bemaßungen_TC_020513_DIN_
 62
     7
100
AcDbPoint
 10
230.433137379857
 20
147.842055239899
 30
0.0
  0
SPLINE
  5
258
330
1F
100
AcDbEntity
  8
Sichtbare_Kanten_TC_020513_DIN_
  6
Continuous
 62
     7
100
AcDbSpline
210
0.0
220
0.0
230
1.0
 70
     8
 71
     3
 72
    31
 73
    27
 74
    25
 42
0.0000000001
 43
0.0000000001
 44
0.00000001
 40
0.0
 40
0.0
 40
0.0
 40
0.0
 40
0.1213199263209562
 40
0.2426398528936855
 40
0.2730344327915111
 40
0.3034237123955396
 40
0.3338153181340124
 40
0.3642082196095034
 40
0.3946276396436934
 40
0.4250468318228265
 40
0.4554660502064486
 40
0.485885223601643
 40
0.5163353239211337
 40
0.5467855479816738
 40
0.5772357937679666
 40
0.6076859271184187
 40
0.6381668680010205
 40
0.6686478631058883
 40
0.6991288658908328
 40
0.7296101001494333
 40
0.7601190939254014
 40
0.7906268329192951
 40
0.8211323177582355
 40
0.851642969514265
 40
0.9736340399424289
 40
1.09562511060689
 40
1.09562511060689
 40
1.09562511060689
 40
1.09562511060689
 10
307.683137379857
 20
179.91899908443
 30
0.0
 10
307.6810941284743
 20
179.95948581687
 30
0.0
 10
307.6770076257048
 20
180.040459281834
 30
0.0
 10
307.6521156704748
 20
180.1288411298486
 30
0.0
 10
307.6300626551316
 20
180.1853789684304
 30
0.0
 10
307.6177457612151
 20
180.2131791266036
 30
0.0
 10
307.6042372661671
 20
180.2404124040838
 30
0.0
 10
307.5895428472934
 20
180.2670381393765
 30
0.0
 10
307.5736910698548
 20
180.2930016790373
 30
0.0
 10
307.5567144185967
 20
180.3182547177414
 30
0.0
 10
307.5386521309828
 20
180.3427428395677
 30
0.0
 10
307.5195316071712
 20
180.3664272342234
 30
0.0
 10
307.4993858115059
 20
180.3892597069015
 30
0.0
 10
307.4782557664948
 20
180.4111987738617
 30
0.0
 10
307.4561901651512
 20
180.4321966434409
 30
0.0
 10
307.4332229614256
 20
180.4522200098028
 30
0.0
 10
307.4093950363616
 20
180.4712274610894
 30
0.0
 10
307.384753886058
 20
180.4891854459113
 30
0.0
 10
307.359355482904
 20
180.5060556644316
 30
0.0
 10
307.3332396968572
 20
180.5218104066533
 30
0.0
 10
307.3064541280878
 20
180.5364170749942
 30
0.0
 10
307.2790525099516
 20
180.5498466250918
 30
0.0
 10
307.251091747193
 20
180.5620864258723
 30
0.0
 10
307.1941840625525
 20
180.5840197019508
 30
0.0
 10
307.1052659979513
 20
180.6087524441671
 30
0.0
 10
307.0238469192481
 20
180.6128098288451
 30
0.0
 10
306.983137379857
 20
180.614838521186
 30
0.0
 11
307.683137379857
 21
179.91899908443
 31
0.0
 11
307.6724990145341
 21
180.0398516793785
 31
0.0
 11
307.6409222144069
 21
180.1569901883213
 31
0.0
 11
307.6298494051825
 21
180.1852960778682
 31
0.0
 11
307.6175474580347
 21
180.213084032295
 31
0.0
 11
307.604040615498
 21
180.2403092945353
 31
0.0
 11
307.5893551625061
 21
180.2669188028081
 31
0.0
 11
307.5735043118246
 21
180.292882077792
 31
0.0
 11
307.5565334765245
 21
180.3181272357841
 31
0.0
 11
307.5384768280725
 21
180.3426075604092
 31
0.0
 11
307.5193684900405
 21
180.3662760527081
 31
0.0
 11
307.4992229405263
 21
180.3891094809272
 31
0.0
 11
307.4780998466759
 21
180.4110419010291
 31
0.0
 11
307.4560411571303
 21
180.4320331297682
 31
0.0
 11
307.4330887066376
 21
180.4520430182596
 31
0.0
 11
307.4092608543421
 21
180.4710514693294
 31
0.0
 11
307.3846276928517
 21
180.4890041409293
 31
0.0
 11
307.3592373164271
 21
180.5058689064417
 31
0.0
 11
307.3331373798566
 21
180.5216137136157
 31
0.0
 11
307.3063522616982
 21
180.5362204294157
 31
0.0
 11
307.2789587242534
 21
180.5496486178557
 31
0.0
 11
307.2510101089378
 21
180.5618739811304
 31
0.0
 11
307.2225514801842
 21
180.5728742684013
 31
0.0
 11
307.1046698707916
 21
180.6042708833656
 31
0.0
 11
306.983137379857
 21
180.614838521186
 31
0.0
  0
SPLINE
  5
259
330
1F
100
AcDbEntity
  8
Sichtbare_Kanten_TC_020513_DIN_
  6
Continuous
 62
     7
100
AcDbSpline
210
0.0
220
0.0
230
1.0
 70
     8
 71
     3
 72
    31
 73
    27
 74
    25
 42
0.0000000001
 43
0.0000000001
 44
0.00000001
 40
0.0
 40
0.0
 40
0.0
 40
0.0
 40
0.1219910706654214
 40
0.2439821410937245
 40
0.2744927928497438
 40
0.3049982776886206
 40
0.3355060166826164
 40
0.3660150104586117
 40
0.3964962447170854
 40
0.4269772475016986
 40
0.4574582426063994
 40
0.4879391834888144
 40
0.5183893168389963
 40
0.5488395626252087
 40
0.5792897866858292
 40
0.6097398870054164
 40
0.6401590604006329
 40
0.6705782787844128
 40
0.7009974709635939
 40
0.7314168909978483
 40
0.7618097924732818
 40
0.7922013982118059
 40
0.8225906778159234
 40
0.8529852577138584
 40
0.9743051842865667
 40
1.095625110607475
 40
1.095625110607475
 40
1.095625110607475
 40
1.095625110607475
 10
296.383137379857
 20
180.614838521186
 30
0.0
 10
296.3424278404656
 20
180.6128098288451
 30
0.0
 10
296.261008761762
 20
180.6087524441673
 30
0.0
 10
296.1720906971605
 20
180.5840197019507
 30
0.0
 10
296.11518301252
 20
180.5620864258723
 30
0.0
 10
296.0872222497612
 20
180.5498466250917
 30
0.0
 10
296.0598206316251
 20
180.5364170749943
 30
0.0
 10
296.0330350628557
 20
180.5218104066532
 30
0.0
 10
296.006919276809
 20
180.5060556644317
 30
0.0
 10
295.9815208736553
 20
180.4891854459113
 30
0.0
 10
295.9568797233518
 20
180.4712274610894
 30
0.0
 10
295.9330517982883
 20
180.4522200098029
 30
0.0
 10
295.9100845945629
 20
180.4321966434409
 30
0.0
 10
295.8880189932193
 20
180.4111987738618
 30
0.0
 10
295.8668889482082
 20
180.3892597069015
 30
0.0
 10
295.8467431525427
 20
180.3664272342235
 30
0.0
 10
295.8276226287312
 20
180.3427428395676
 30
0.0
 10
295.8095603411172
 20
180.3182547177414
 30
0.0
 10
295.7925836898586
 20
180.2930016790373
 30
0.0
 10
295.7767319124201
 20
180.2670381393767
 30
0.0
 10
295.7620374935465
 20
180.2404124040838
 30
0.0
 10
295.7485289984986
 20
180.2131791266035
 30
0.0
 10
295.7362121045817
 20
180.1853789684303
 30
0.0
 10
295.7141590892383
 20
180.1288411298486
 30
0.0
 10
295.6892671340075
 20
180.0404592818342
 30
0.0
 10
295.6851806312392
 20
179.9594858168701
 30
0.0
 10
295.683137379857
 20
179.91899908443
 30
0.0
 11
296.383137379857
 21
180.614838521186
 31
0.0
 11
296.2616048889215
 21
180.6042708833656
 31
0.0
 11
296.1437232795287
 21
180.5728742684012
 31
0.0
 11
296.1152646507751
 21
180.5618739811304
 31
0.0
 11
296.0873160354595
 21
180.5496486178557
 31
0.0
 11
296.0599224980147
 21
180.5362204294156
 31
0.0
 11
296.0331373798562
 21
180.5216137136156
 31
0.0
 11
296.0070374432859
 21
180.5058689064417
 31
0.0
 11
295.9816470668616
 21
180.4890041409293
 31
0.0
 11
295.9570139053715
 21
180.4710514693294
 31
0.0
 11
295.9331860530762
 21
180.4520430182596
 31
0.0
 11
295.9102336025838
 21
180.4320331297682
 31
0.0
 11
295.8881749130382
 21
180.4110419010293
 31
0.0
 11
295.8670518191878
 21
180.3891094809273
 31
0.0
 11
295.8469062696735
 21
180.3662760527081
 31
0.0
 11
295.8277979316415
 21
180.3426075604092
 31
0.0
 11
295.8097412831893
 21
180.3181272357841
 31
0.0
 11
295.792770447889
 21
180.292882077792
 31
0.0
 11
295.7769195972073
 21
180.2669188028082
 31
0.0
 11
295.7622341442155
 21
180.2403092945353
 31
0.0
 11
295.748727301679
 21
180.2130840322949
 31
0.0
 11
295.7364253545308
 21
180.1852960778682
 31
0.0
 11
295.7253525453062
 21
180.1569901883212
 31
0.0
 11
295.6937757451786
 21
180.0398516793785
 31
0.0
 11
295.683137379857
 21
179.91899908443
 31
0.0
  0
SPLINE
  5
25A
330
1F
100
AcDbEntity
  8
Sichtbare_Kanten_TC_020513_DIN_
  6
Continuous
 62
     7
100
AcDbSpline
210
0.0
220
0.0
230
1.0
 70
     8
 71
     3
 72
    31
 73
    27
 74
    25
 42
0.0000000001
 43
0.0000000001
 44
0.00000001
 40
0.0
 40
0.0
 40
0.0
 40
0.0
 40
0.1213199263209795
 40
0.2426398528936138
 40
0.2730344327914452
 40
0.3034237123954476
 40
0.3338153181339967
 40
0.3642082196094955
 40
0.3946276396435721
 40
0.4250468318226987
 40
0.4554660502065821
 40
0.4858852236020554
 40
0.5163353239216689
 40
0.5467855479821316
 40
0.5772357937681166
 40
0.6076859271182502
 40
0.6381668680007454
 40
0.6686478631056466
 40
0.6991288658905911
 40
0.7296101001491282
 40
0.7601190939251099
 40
0.7906268329190421
 40
0.821132317757971
 40
0.8516429695140005
 40
0.9736340399421242
 40
1.095625110606642
 40
1.095625110606642
 40
1.095625110606642
 40
1.095625110606642
 10
307.683137379857
 20
179.973432521856
 30
0.0
 10
307.6810941284743
 20
180.013919254296
 30
0.0
 10
307.677007625705
 20
180.0948927192601
 30
0.0
 10
307.6521156704745
 20
180.1832745672745
 30
0.0
 10
307.6300626551317
 20
180.2398124058563
 30
0.0
 10
307.6177457612152
 20
180.2676125640296
 30
0.0
 10
307.604237266167
 20
180.2948458415097
 30
0.0
 10
307.5895428472933
 20
180.3214715768025
 30
0.0
 10
307.5736910698542
 20
180.3474351164629
 30
0.0
 10
307.5567144185958
 20
180.3726881551668
 30
0.0
 10
307.5386521309817
 20
180.3971762769932
 30
0.0
 10
307.5195316071703
 20
180.4208606716493
 30
0.0
 10
307.4993858115049
 20
180.4436931443275
 30
0.0
 10
307.4782557664939
 20
180.4656322112876
 30
0.0
 10
307.4561901651506
 20
180.4866300808669
 30
0.0
 10
307.4332229614255
 20
180.5066534472289
 30
0.0
 10
307.4093950363616
 20
180.5256608985155
 30
0.0
 10
307.384753886058
 20
180.5436188833373
 30
0.0
 10
307.359355482904
 20
180.5604891018576
 30
0.0
 10
307.3332396968572
 20
180.5762438440792
 30
0.0
 10
307.3064541280878
 20
180.5908505124203
 30
0.0
 10
307.2790525099516
 20
180.6042800625178
 30
0.0
 10
307.251091747193
 20
180.6165198632983
 30
0.0
 10
307.1941840625525
 20
180.6384531393768
 30
0.0
 10
307.1052659979513
 20
180.6631858815931
 30
0.0
 10
307.0238469192481
 20
180.6672432662711
 30
0.0
 10
306.983137379857
 20
180.669271958612
 30
0.0
 11
307.683137379857
 21
179.973432521856
 31
0.0
 11
307.6724990145342
 21
180.0942851168045
 31
0.0
 11
307.6409222144069
 21
180.2114236257472
 31
0.0
 11
307.6298494051826
 21
180.2397295152942
 31
0.0
 11
307.6175474580347
 21
180.2675174697209
 31
0.0
 11
307.604040615498
 21
180.2947427319613
 31
0.0
 11
307.589355162506
 21
180.321352240234
 31
0.0
 11
307.5735043118241
 21
180.3473155152175
 31
0.0
 11
307.5565334765237
 21
180.3725606732094
 31
0.0
 11
307.5384768280715
 21
180.3970409978348
 31
0.0
 11
307.5193684900395
 21
180.420709490134
 31
0.0
 11
307.4992229405252
 21
180.4435429183532
 31
0.0
 11
307.478099846675
 21
180.4654753384552
 31
0.0
 11
307.4560411571298
 21
180.4864665671942
 31
0.0
 11
307.4330887066375
 21
180.5064764556856
 31
0.0
 11
307.4092608543421
 21
180.5254849067553
 31
0.0
 11
307.3846276928517
 21
180.5434375783553
 31
0.0
 11
307.3592373164271
 21
180.5603023438678
 31
0.0
 11
307.3331373798567
 21
180.5760471510417
 31
0.0
 11
307.3063522616982
 21
180.5906538668417
 31
0.0
 11
307.2789587242534
 21
180.6040820552817
 31
0.0
 11
307.2510101089378
 21
180.6163074185564
 31
0.0
 11
307.2225514801842
 21
180.6273077058272
 31
0.0
 11
307.1046698707916
 21
180.6587043207916
 31
0.0
 11
306.983137379857
 21
180.669271958612
 31
0.0
  0
SPLINE
  5
25B
330
1F
100
AcDbEntity
  8
Sichtbare_Kanten_TC_020513_DIN_
  6
Continuous
 62
     7
100
AcDbSpline
210
0.0
220
0.0
230
1.0
 70
     8
 71
     3
 72
    31
 73
    27
 74
    25
 42
0.0000000001
 43
0.0000000001
 44
0.00000001
 40
0.0
 40
0.0
 40
0.0
 40
0.0
 40
0.1219910706653673
 40
0.2439821410937802
 40
0.2744927928497464
 40
0.3049982776885826
 40
0.3355060166825408
 40
0.3660150104585497
 40
0.3964962447170088
 40
0.4269772475017481
 40
0.457458242606403
 40
0.487939183488676
 40
0.5183893168390182
 40
0.5488395626252914
 40
0.5792897866858709
 40
0.6097398870053992
 40
0.6401590604005936
 40
0.6705782787844192
 40
0.7009974709636085
 40
0.7314168909979115
 40
0.7618097924733201
 40
0.7922013982117679
 40
0.8225906778159864
 40
0.8529852577139271
 40
0.974305184286608
 40
1.095625110607459
 40
1.095625110607459
 40
1.095625110607459
 40
1.095625110607459
 10
296.383137379857
 20
180.669271958612
 30
0.0
 10
296.3424278404656
 20
180.6672432662711
 30
0.0
 10
296.261008761762
 20
180.6631858815933
 30
0.0
 10
296.1720906971604
 20
180.6384531393766
 30
0.0
 10
296.11518301252
 20
180.6165198632983
 30
0.0
 10
296.0872222497614
 20
180.6042800625176
 30
0.0
 10
296.0598206316251
 20
180.5908505124204
 30
0.0
 10
296.0330350628558
 20
180.5762438440792
 30
0.0
 10
296.0069192768091
 20
180.5604891018577
 30
0.0
 10
295.9815208736551
 20
180.5436188833373
 30
0.0
 10
295.956879723352
 20
180.5256608985156
 30
0.0
 10
295.9330517982881
 20
180.5066534472288
 30
0.0
 10
295.910084594563
 20
180.4866300808669
 30
0.0
 10
295.8880189932192
 20
180.4656322112876
 30
0.0
 10
295.8668889482083
 20
180.4436931443276
 30
0.0
 10
295.8467431525427
 20
180.4208606716495
 30
0.0
 10
295.8276226287311
 20
180.3971762769936
 30
0.0
 10
295.8095603411172
 20
180.3726881551674
 30
0.0
 10
295.7925836898585
 20
180.3474351164634
 30
0.0
 10
295.77673191242
 20
180.3214715768027
 30
0.0
 10
295.7620374935464
 20
180.2948458415097
 30
0.0
 10
295.7485289984986
 20
180.2676125640295
 30
0.0
 10
295.7362121045816
 20
180.2398124058563
 30
0.0
 10
295.7141590892385
 20
180.1832745672745
 30
0.0
 10
295.6892671340075
 20
180.0948927192601
 30
0.0
 10
295.685180631239
 20
180.013919254296
 30
0.0
 10
295.683137379857
 20
179.973432521856
 30
0.0
 11
296.383137379857
 21
180.669271958612
 31
0.0
 11
296.2616048889215
 21
180.6587043207916
 31
0.0
 11
296.1437232795287
 21
180.6273077058271
 31
0.0
 11
296.1152646507751
 21
180.6163074185564
 31
0.0
 11
296.0873160354596
 21
180.6040820552817
 31
0.0
 11
296.0599224980147
 21
180.5906538668417
 31
0.0
 11
296.0331373798563
 21
180.5760471510416
 31
0.0
 11
296.0070374432859
 21
180.5603023438678
 31
0.0
 11
295.9816470668615
 21
180.5434375783553
 31
0.0
 11
295.9570139053715
 21
180.5254849067554
 31
0.0
 11
295.9331860530763
 21
180.5064764556857
 31
0.0
 11
295.9102336025838
 21
180.4864665671942
 31
0.0
 11
295.8881749130381
 21
180.4654753384552
 31
0.0
 11
295.8670518191877
 21
180.4435429183533
 31
0.0
 11
295.8469062696735
 21
180.4207094901342
 31
0.0
 11
295.8277979316415
 21
180.3970409978353
 31
0.0
 11
295.8097412831893
 21
180.37256067321
 31
0.0
 11
295.7927704478889
 21
180.347315515218
 31
0.0
 11
295.7769195972072
 21
180.3213522402341
 31
0.0
 11
295.7622341442155
 21
180.2947427319613
 31
0.0
 11
295.748727301679
 21
180.267517469721
 31
0.0
 11
295.7364253545308
 21
180.2397295152942
 31
0.0
 11
295.7253525453062
 21
180.2114236257471
 31
0.0
 11
295.6937757451786
 21
180.0942851168045
 31
0.0
 11
295.683137379857
 21
179.973432521856
 31
0.0
  0
LWPOLYLINE
  5
25C
330
1F
100
AcDbEntity
  8
Mittelpunktmarkierung_TC_020513_DIN_
  6
CHAIN
 62
     7
100
AcDbPolyline
 90
        2
 70
     0
 43
0.25
 10
91.7600231045204
 20
176.711804779764
 10
91.7600231045204
 20
162.211804779764
  0
LWPOLYLINE
  5
25D
330
1F
100
AcDbEntity
  8
Mittelpunktmarkierung_TC_020513_DIN_
  6
CHAIN
 62
     7
100
AcDbPolyline
 90
        2
 70
     0
 43
0.25
 10
99.0100231045204
 20
169.461804779764
 10
84.5100231045204
 20
169.461804779764
  0
LWPOLYLINE
  5
25E
330
1F
100
AcDbEntity
  8
Mittelpunktmarkierung_TC_020513_DIN_
  6
CHAIN
 62
     7
100
AcDbPolyline
 90
        2
 70
     0
 43
0.25
 10
123.76002310452
 20
176.711804779764
 10
123.76002310452
 20
162.211804779764
  0
LWPOLYLINE
  5
25F
330
1F
100
AcDbEntity
  8
Mittelpunktmarkierung_TC_020513_DIN_
  6
CHAIN
 62
     7
100
AcDbPolyline
 90
        2
 70
     0
 43
0.25
 10
131.01002310452
 20
169.461804779764
 10
116.51002310452
 20
169.461804779764
  0
LWPOLYLINE
  5
260
330
1F
100
AcDbEntity
  8
Mittelpunktmarkierung_TC_020513_DIN_
  6
CHAIN
 62
     7
100
AcDbPolyline
 90
        2
 70
     0
 43
0.25
 10
123.76002310452
 20
306.711804779765
 10
123.76002310452
 20
296.211804779764
  0
LWPOLYLINE
  5
261
330
1F
100
AcDbEntity
  8
Mittelpunktmarkierung_TC_020513_DIN_
  6
CHAIN
 62
     7
100
AcDbPolyline
 90
        2
 70
     0
 43
0.25
 10
131.01002310452
 20
299.461804779764
 10
116.51002310452
 20
299.461804779764
  0
LWPOLYLINE
  5
262
330
1F
100
AcDbEntity
  8
Mittelpunktmarkierung_TC_020513_DIN_
  6
CHAIN
 62
     7
100
AcDbPolyline
 90
        2
 70
     0
 43
0.25
 10
91.7600231045204
 20
306.711804779765
 10
91.7600231045204
 20
296.211804779764
  0
LWPOLYLINE
  5
263
330
1F
100
AcDbEntity
  8
Mittelpunktmarkierung_TC_020513_DIN_
  6
CHAIN
 62
     7
100
AcDbPolyline
 90
        2
 70
     0
 43
0.25
 10
99.0100231045204
 20
299.461804779764
 10
84.5100231045204
 20
299.461804779764
  0
LWPOLYLINE
  5
264
330
1F
100
AcDbEntity
  8
Mittellinie_TC_020513_DIN_
  6
CHAIN
 62
     7
100
AcDbPolyline
 90
        2
 70
     0
 43
0.25
 10
107.76002310452
 20
295.461804779764
 10
107.76002310452
 20
177.461804779764
  0
LWPOLYLINE
  5
265
330
1F
100
AcDbEntity
  8
Mittellinie_TC_020513_DIN_
  6
CHAIN
 62
     7
100
AcDbPolyline
 90
        2
 70
     0
 43
0.25
 10
84.2600231045204
 20
234.461804779764
 10
131.26002310452
 20
234.461804779764
  0
LWPOLYLINE
  5
266
330
1F
100
AcDbEntity
  8
Skizziergeometrie_TC_020513_DIN_
  6
Continuous
 62
     7
100
AcDbPolyline
 90
        2
 70
     0
 43
0.5
 10
89.2600231045204
 20
178.461804779764
 10
89.2600231045204
 20
290.461804779764
  0
LWPOLYLINE
  5
267
330
1F
100
AcDbEntity
  8
Skizziergeometrie_TC_020513_DIN_
  6
Continuous
 62
     7
100
AcDbPolyline
 90
        2
 70
     0
 43
0.5
 10
126.26002310452
 20
178.461804779764
 10
89.2600231045204
 20
178.461804779764
  0
LWPOLYLINE
  5
268
330
1F
100
AcDbEntity
  8
Skizziergeometrie_TC_020513_DIN_
  6
Continuous
 62
     7
100
AcDbPolyline
 90
        2
 70
     0
 43
0.5
 10
126.26002310452
 20
290.461804779764
 10
126.26002310452
 20
178.461804779764
  0
LWPOLYLINE
  5
269
330
1F
100
AcDbEntity
  8
Skizziergeometrie_TC_020513_DIN_
  6
Continuous
 62
     7
100
AcDbPolyline
 90
        2
 70
     0
 43
0.5
 10
89.2600231045204
 20
290.461804779764
 10
126.26002310452
 20
290.461804779764
  0
LWPOLYLINE
  5
26A
330
1F
100
AcDbEntity
  8
Mittellinie_TC_020513_DIN_
  6
CHAIN
 62
     7
100
AcDbPolyline
 90
        2
 70
     0
 43
0.25
 10
483.326690393419
 20
142.842055239899
 10
483.326690393419
 20
179.987030608002
  0
LWPOLYLINE
  5
26B
330
1F
100
AcDbEntity
  8
Mittellinie_TC_020513_DIN_
  6
CHAIN
 62
     7
100
AcDbPolyline
 90
        2
 70
     0
 43
0.25
 10
450.326690393428
 20
167.342055239899
 10
465.076690393428
 20
167.342055239899
  0
LWPOLYLINE
  5
26C
330
1F
100
AcDbEntity
  8
Mittellinie_TC_020513_DIN_
  6
CHAIN
 62
     7
100
AcDbPolyline
 90
        2
 70
     0
 43
0.25
 10
501.576690393428
 20
167.342055239899
 10
516.326690393428
 20
167.342055239899
  0
LWPOLYLINE
  5
26D
330
1F
100
AcDbEntity
  8
Mittellinie_TC_020513_DIN_
  6
CHAIN
 62
     7
100
AcDbPolyline
 90
        2
 70
     0
 43
0.25
 10
499.32669039342
 20
144.342055239899
 10
499.32669039342
 20
158.842055239899
  0
LWPOLYLINE
  5
26E
330
1F
100
AcDbEntity
  8
Mittellinie_TC_020513_DIN_
  6
CHAIN
 62
     7
100
AcDbPolyline
 90
        2
 70
     0
 43
0.25
 10
467.32669039342
 20
144.342055239899
 10
467.32669039342
 20
158.842055239899
  0
LWPOLYLINE
  5
26F
330
1F
100
AcDbEntity
  8
Mittellinie_TC_020513_DIN_
  6
CHAIN
 62
     7
100
AcDbPolyline
 90
        2
 70
     0
 43
0.25
 10
366.683137379857
 20
144.342055239899
 10
366.683137379857
 20
158.842055239899
  0
LWPOLYLINE
  5
270
330
1F
100
AcDbEntity
  8
Mittellinie_TC_020513_DIN_
  6
CHAIN
 62
     7
100
AcDbPolyline
 90
        2
 70
     0
 43
0.25
 10
301.683137379857
 20
142.842055239899
 10
301.683137379857
 20
243.209078087845
  0
LWPOLYLINE
  5
271
330
1F
100
AcDbEntity
  8
Mittellinie_TC_020513_DIN_
  6
CHAIN
 62
     7
100
AcDbPolyline
 90
        2
 70
     0
 43
0.25
 10
236.683137379857
 20
144.342055239899
 10
236.683137379857
 20
158.842055239899
  0
LWPOLYLINE
  5
272
330
1F
100
AcDbEntity
  8
Mittelpunktmarkierung_TC_020513_DIN_
  6
CHAIN
 62
     7
100
AcDbPolyline
 90
        2
 70
     0
 43
0.25
 10
338.933137379857
 20
176.342055239899
 10
338.933137379857
 20
158.342055239899
  0
LWPOLYLINE
  5
273
330
1F
100
AcDbEntity
  8
Mittelpunktmarkierung_TC_020513_DIN_
  6
CHAIN
 62
     7
100
AcDbPolyline
 90
        2
 70
     0
 43
0.25
 10
347.933137379857
 20
167.342055239899
 10
329.933137379857
 20
167.342055239899
  0
LWPOLYLINE
  5
274
330
1F
100
AcDbEntity
  8
Mittelpunktmarkierung_TC_020513_DIN_
  6
CHAIN
 62
     7
100
AcDbPolyline
 90
        2
 70
     0
 43
0.25
 10
264.433137379857
 20
176.342055239899
 10
264.433137379857
 20
158.342055239899
  0
LWPOLYLINE
  5
275
330
1F
100
AcDbEntity
  8
Mittelpunktmarkierung_TC_020513_DIN_
  6
CHAIN
 62
     7
100
AcDbPolyline
 90
        2
 70
     0
 43
0.25
 10
273.433137379857
 20
167.342055239899
 10
255.433137379857
 20
167.342055239899
  0
LWPOLYLINE
  5
276
330
1F
100
AcDbEntity
  8
Sichtbare_Kanten_TC_020513_DIN_
  6
Continuous
 62
     7
100
AcDbPolyline
 90
        2
 70
     0
 43
0.5
 10
444.076690393434
 20
180.342055239899
 10
444.076690393434
 20
150.842055239899
  0
LWPOLYLINE
  5
277
330
1F
100
AcDbEntity
  8
Sichtbare_Kanten_TC_020513_DIN_
  6
Continuous
 62
     7
100
AcDbPolyline
 90
        2
 70
     0
 43
0.5
 10
445.076690393434
 20
149.842055239899
 10
459.576690393434
 20
149.842055239899
  0
LWPOLYLINE
  5
278
330
1F
100
AcDbEntity
  8
Sichtbare_Kanten_TC_020513_DIN_
  6
Continuous
 62
     7
100
AcDbPolyline
 90
        2
 70
     0
 43
0.5
 10
459.576690393434
 20
150.342055239899
 10
459.576690393434
 20
149.842055239899
  0
LWPOLYLINE
  5
279
330
1F
100
AcDbEntity
  8
Sichtbare_Kanten_TC_020513_DIN_
  6
Continuous
 62
     7
100
AcDbPolyline
 90
        2
 70
     0
 43
0.5
 10
453.026690393435
 20
181.342055239899
 10
445.076690393434
 20
181.342055239899
  0
LWPOLYLINE
  5
27A
330
1F
100
AcDbEntity
  8
Sichtbare_Kanten_TC_020513_DIN_
  6
Continuous
 62
     7
100
AcDbPolyline
 90
        2
 70
     0
 43
0.5
 10
453.026690393435
 20
181.342055239899
 10
453.121928488672
 20
180.842055239899
  0
LWPOLYLINE
  5
27B
330
1F
100
AcDbEntity
  8
Sichtbare_Kanten_TC_020513_DIN_
  6
Continuous
 62
     7
100
AcDbPolyline
 90
        2
 70
     0
 43
0.5
 10
453.121928488672
 20
180.842055239899
 10
455.026690393438
 20
170.842055239899
  0
LWPOLYLINE
  5
27C
330
1F
100
AcDbEntity
  8
Sichtbare_Kanten_TC_020513_DIN_
  6
Continuous
 62
     7
100
AcDbPolyline
 90
        2
 70
     0
 43
0.5
 10
459.576690393434
 20
151.842055239899
 10
459.576690393434
 20
150.342055239899
  0
LWPOLYLINE
  5
27D
330
1F
100
AcDbEntity
  8
Sichtbare_Kanten_TC_020513_DIN_
  6
Continuous
 62
     7
100
AcDbPolyline
 90
        2
 70
     0
 43
0.5
 10
455.026690393434
 20
151.842055239899
 10
455.026690393438
 20
170.842055239899
  0
LWPOLYLINE
  5
27E
330
1F
100
AcDbEntity
  8
Sichtbare_Kanten_TC_020513_DIN_
  6
Continuous
 62
     7
100
AcDbPolyline
 90
        2
 70
     0
 43
0.5
 10
455.026690393438
 20
170.842055239899
 10
461.076690393438
 20
170.842055239899
  0
LWPOLYLINE
  5
27F
330
1F
100
AcDbEntity
  8
Sichtbare_Kanten_TC_020513_DIN_
  6
Continuous
 62
     7
100
AcDbPolyline
 90
        2
 70
     0
 43
0.5
 10
455.026690393434
 20
151.842055239899
 10
459.576690393434
 20
151.842055239899
  0
LWPOLYLINE
  5
280
330
1F
100
AcDbEntity
  8
Sichtbare_Kanten_TC_020513_DIN_
  6
Continuous
 62
     7
100
AcDbPolyline
 90
        2
 70
     0
 43
0.5
 10
461.576690393423
 20
154.842055239899
 10
455.026690393436
 20
154.842055239899
  0
LWPOLYLINE
  5
281
330
1F
100
AcDbEntity
  8
Sichtbare_Kanten_TC_020513_DIN_
  6
Continuous
 62
     7
100
AcDbPolyline
 90
        2
 70
     0
 43
0.5
 10
461.576690393434
 20
151.842055239899
 10
459.576690393434
 20
151.842055239899
  0
LWPOLYLINE
  5
282
330
1F
100
AcDbEntity
  8
Sichtbare_Kanten_TC_020513_DIN_
  6
Continuous
 62
     7
100
AcDbPolyline
 90
        2
 70
     0
 43
0.5
 10
505.326690393423
 20
171.342055239899
 10
505.326690393423
 20
176.842055239899
  0
LWPOLYLINE
  5
283
330
1F
100
AcDbEntity
  8
Sichtbare_Kanten_TC_020513_DIN_
  6
Continuous
 62
     7
100
AcDbPolyline
 90
        2
 70
     0
 43
0.5
 10
499.326690393421
 20
171.342055239899
 10
505.326690393423
 20
171.342055239899
  0
LWPOLYLINE
  5
284
330
1F
100
AcDbEntity
  8
Sichtbare_Kanten_TC_020513_DIN_
  6
Continuous
 62
     7
100
AcDbPolyline
 90
        2
 70
     0
 43
0.5
 10
499.326690393421
 20
171.342055239899
 10
467.326690393421
 20
171.342055239899
  0
LWPOLYLINE
  5
285
330
1F
100
AcDbEntity
  8
Sichtbare_Kanten_TC_020513_DIN_
  6
Continuous
 62
     7
100
AcDbPolyline
 90
        2
 70
     0
 43
0.5
 10
461.326690393423
 20
171.342055239899
 10
467.326690393421
 20
171.342055239899
  0
LWPOLYLINE
  5
286
330
1F
100
AcDbEntity
  8
Sichtbare_Kanten_TC_020513_DIN_
  6
Continuous
 62
     7
100
AcDbPolyline
 90
        2
 70
     0
 43
0.5
 10
461.326690393423
 20
171.342055239899
 10
461.326690393423
 20
176.842055239899
  0
LWPOLYLINE
  5
287
330
1F
100
AcDbEntity
  8
Sichtbare_Kanten_TC_020513_DIN_
  6
Continuous
 62
     7
100
AcDbPolyline
 90
        2
 70
     0
 43
0.5
 10
499.326690393421
 20
176.842055239899
 10
505.326690393423
 20
176.842055239899
  0
LWPOLYLINE
  5
288
330
1F
100
AcDbEntity
  8
Sichtbare_Kanten_TC_020513_DIN_
  6
Continuous
 62
     7
100
AcDbPolyline
 90
        2
 70
     0
 43
0.5
 10
499.326690393421
 20
176.842055239899
 10
467.326690393421
 20
176.842055239899
  0
LWPOLYLINE
  5
289
330
1F
100
AcDbEntity
  8
Sichtbare_Kanten_TC_020513_DIN_
  6
Continuous
 62
     7
100
AcDbPolyline
 90
        2
 70
     0
 43
0.5
 10
461.326690393423
 20
176.842055239899
 10
467.326690393421
 20
176.842055239899
  0
LWPOLYLINE
  5
28A
330
1F
100
AcDbEntity
  8
Sichtbare_Kanten_TC_020513_DIN_
  6
Continuous
 62
     7
100
AcDbPolyline
 90
        2
 70
     0
 43
0.5
 10
501.076690393418
 20
151.342055239899
 10
506.076690393419
 20
151.342055239899
  0
LWPOLYLINE
  5
28B
330
1F
100
AcDbEntity
  8
Sichtbare_Kanten_TC_020513_DIN_
  6
Continuous
 62
     7
100
AcDbPolyline
 90
        2
 70
     0
 43
0.5
 10
501.076690393418
 20
151.342055239899
 10
465.576690393418
 20
151.342055239899
  0
LWPOLYLINE
  5
28C
330
1F
100
AcDbEntity
  8
Sichtbare_Kanten_TC_020513_DIN_
  6
Continuous
 62
     7
100
AcDbPolyline
 90
        2
 70
     0
 43
0.5
 10
460.576690393419
 20
151.342055239899
 10
465.576690393418
 20
151.342055239899
  0
LWPOLYLINE
  5
28D
330
1F
100
AcDbEntity
  8
Sichtbare_Kanten_TC_020513_DIN_
  6
Continuous
 62
     7
100
AcDbPolyline
 90
        2
 70
     0
 43
0.5
 10
506.076690393419
 20
147.842055239899
 10
506.076690393419
 20
151.342055239899
  0
LWPOLYLINE
  5
28E
330
1F
100
AcDbEntity
  8
Sichtbare_Kanten_TC_020513_DIN_
  6
Continuous
 62
     7
100
AcDbPolyline
 90
        2
 70
     0
 43
0.5
 10
460.576690393419
 20
147.842055239899
 10
460.576690393419
 20
151.342055239899
  0
LWPOLYLINE
  5
28F
330
1F
100
AcDbEntity
  8
Sichtbare_Kanten_TC_020513_DIN_
  6
Continuous
 62
     7
100
AcDbPolyline
 90
        2
 70
     0
 43
0.5
 10
460.576690393419
 20
147.842055239899
 10
465.576690393418
 20
147.842055239899
  0
LWPOLYLINE
  5
290
330
1F
100
AcDbEntity
  8
Sichtbare_Kanten_TC_020513_DIN_
  6
Continuous
 62
     7
100
AcDbPolyline
 90
        2
 70
     0
 43
0.5
 10
501.076690393418
 20
147.842055239899
 10
465.576690393418
 20
147.842055239899
  0
LWPOLYLINE
  5
291
330
1F
100
AcDbEntity
  8
Sichtbare_Kanten_TC_020513_DIN_
  6
Continuous
 62
     7
100
AcDbPolyline
 90
        2
 70
     0
 43
0.5
 10
501.076690393418
 20
147.842055239899
 10
506.076690393419
 20
147.842055239899
  0
LWPOLYLINE
  5
292
330
1F
100
AcDbEntity
  8
Sichtbare_Kanten_TC_020513_DIN_
  6
Continuous
 62
     7
100
AcDbPolyline
 90
        2
 70
     0
 43
0.5
 10
446.076690393423
 20
188.592055239899
 10
443.576690393436
 20
188.592055239899
  0
LWPOLYLINE
  5
293
330
1F
100
AcDbEntity
  8
Sichtbare_Kanten_TC_020513_DIN_
  6
Continuous
 62
     7
100
AcDbPolyline
 90
        2
 70
     0
 43
0.5
 10
443.576690393436
 20
188.592055239899
 10
443.576690393436
 20
180.142055239899
  0
LWPOLYLINE
  5
294
330
1F
100
AcDbEntity
  8
Sichtbare_Kanten_TC_020513_DIN_
  6
Continuous
 62
     7
100
AcDbPolyline
 90
        2
 70
     0
 43
0.5
 10
443.576690393436
 20
180.142055239899
 10
444.076690393436
 20
180.142055239899
  0
LWPOLYLINE
  5
295
330
1F
100
AcDbEntity
  8
Sichtbare_Kanten_TC_020513_DIN_
  6
Continuous
 62
     7
100
AcDbPolyline
 90
        2
 70
     0
 43
0.5
 10
444.076690393436
 20
172.342055239899
 10
441.972101556325
 20
172.342055239899
  0
LWPOLYLINE
  5
296
330
1F
100
AcDbEntity
  8
Sichtbare_Kanten_TC_020513_DIN_
  6
Continuous
 62
     7
100
AcDbPolyline
 90
        2
 70
     0
 43
0.5
 10
437.018333531186
 20
191.58845088051
 10
441.48556141258
 20
172.726822047959
  0
LWPOLYLINE
  5
297
330
1F
100
AcDbEntity
  8
Sichtbare_Kanten_TC_020513_DIN_
  6
Continuous
 62
     7
100
AcDbPolyline
 90
        2
 70
     0
 43
0.5
 10
450.076690393423
 20
234.592055239899
 10
450.076690393436
 20
237.592055239899
  0
LWPOLYLINE
  5
298
330
1F
100
AcDbEntity
  8
Sichtbare_Kanten_TC_020513_DIN_
  6
Continuous
 62
     7
100
AcDbPolyline
 90
        2
 70
     0
 43
0.5
 10
446.076690393436
 20
237.592055239899
 10
450.076690393436
 20
237.592055239899
  0
LWPOLYLINE
  5
299
330
1F
100
AcDbEntity
  8
Sichtbare_Kanten_TC_020513_DIN_
  6
Continuous
 62
     7
100
AcDbPolyline
 90
        2
 70
     0
 43
0.5
 10
446.076690393423
 20
188.592055239899
 10
450.076690393423
 20
188.592055239899
  0
LWPOLYLINE
  5
29A
330
1F
100
AcDbEntity
  8
Sichtbare_Kanten_TC_020513_DIN_
  6
Continuous
 62
     7
100
AcDbPolyline
 90
        2
 70
     0
 43
0.5
 10
450.076690393421
 20
194.592055239899
 10
450.076690393423
 20
188.592055239899
  0
LWPOLYLINE
  5
29B
330
1F
100
AcDbEntity
  8
Sichtbare_Kanten_TC_020513_DIN_
  6
Continuous
 62
     7
100
AcDbPolyline
 90
        2
 70
     0
 43
0.5
 10
450.076690393423
 20
234.592055239899
 10
450.076690393421
 20
228.592055239899
  0
LWPOLYLINE
  5
29C
330
1F
100
AcDbEntity
  8
Sichtbare_Kanten_TC_020513_DIN_
  6
Continuous
 62
     7
100
AcDbPolyline
 90
        2
 70
     0
 43
0.5
 10
450.076690393421
 20
194.592055239899
 10
450.076690393421
 20
228.592055239899
  0
LWPOLYLINE
  5
29D
330
1F
100
AcDbEntity
  8
Sichtbare_Kanten_TC_020513_DIN_
  6
Continuous
 62
     7
100
AcDbPolyline
 90
        2
 70
     0
 43
0.5
 10
446.076690393423
 20
234.592055239899
 10
450.076690393423
 20
234.592055239899
  0
LWPOLYLINE
  5
29E
330
1F
100
AcDbEntity
  8
Sichtbare_Kanten_TC_020513_DIN_
  6
Continuous
 62
     7
100
AcDbPolyline
 90
        2
 70
     0
 43
0.5
 10
446.076690393423
 20
234.592055239899
 10
446.076690393436
 20
237.592055239899
  0
LWPOLYLINE
  5
29F
330
1F
100
AcDbEntity
  8
Sichtbare_Kanten_TC_020513_DIN_
  6
Continuous
 62
     7
100
AcDbPolyline
 90
        2
 70
     0
 43
0.5
 10
446.076690393423
 20
234.592055239899
 10
446.076690393421
 20
228.592055239899
  0
LWPOLYLINE
  5
2A0
330
1F
100
AcDbEntity
  8
Sichtbare_Kanten_TC_020513_DIN_
  6
Continuous
 62
     7
100
AcDbPolyline
 90
        2
 70
     0
 43
0.5
 10
446.076690393419
 20
215.834695927018
 10
446.076690393421
 20
228.592055239899
  0
LWPOLYLINE
  5
2A1
330
1F
100
AcDbEntity
  8
Sichtbare_Kanten_TC_020513_DIN_
  6
Continuous
 62
     7
100
AcDbPolyline
 90
        2
 70
     0
 43
0.5
 10
446.076690393421
 20
194.592055239899
 10
446.076690393419
 20
207.34941455278
  0
LWPOLYLINE
  5
2A2
330
1F
100
AcDbEntity
  8
Sichtbare_Kanten_TC_020513_DIN_
  6
Continuous
 62
     7
100
AcDbPolyline
 90
        2
 70
     0
 43
0.5
 10
446.076690393421
 20
194.592055239899
 10
446.076690393423
 20
188.592055239899
  0
LWPOLYLINE
  5
2A3
330
1F
100
AcDbEntity
  8
Sichtbare_Kanten_TC_020513_DIN_
  6
Continuous
 62
     7
100
AcDbPolyline
 90
        2
 70
     0
 43
0.5
 10
446.076690393419
 20
207.34941455278
 10
446.076690393419
 20
215.834695927018
  0
LWPOLYLINE
  5
2A4
330
1F
100
AcDbEntity
  8
Sichtbare_Kanten_TC_020513_DIN_
  6
Continuous
 62
     7
100
AcDbPolyline
 90
        2
 70
     0
 43
0.5
 10
446.076690393423
 20
232.342055239899
 10
438.576690393423
 20
232.342055239899
  0
LWPOLYLINE
  5
2A5
330
1F
100
AcDbEntity
  8
Sichtbare_Kanten_TC_020513_DIN_
  6
Continuous
 62
     7
100
AcDbPolyline
 90
        2
 70
     0
 43
0.5
 10
446.076690393423
 20
190.842055239899
 10
438.576690393423
 20
190.842055239899
  0
LWPOLYLINE
  5
2A6
330
1F
100
AcDbEntity
  8
Sichtbare_Kanten_TC_020513_DIN_
  6
Continuous
 62
     7
100
AcDbPolyline
 90
        2
 70
     0
 43
0.5
 10
436.576690393423
 20
192.842055239899
 10
436.576690393422
 20
194.592055239899
  0
LWPOLYLINE
  5
2A7
330
1F
100
AcDbEntity
  8
Sichtbare_Kanten_TC_020513_DIN_
  6
Continuous
 62
     7
100
AcDbPolyline
 90
        2
 70
     0
 43
0.5
 10
436.576690393422
 20
228.592055239899
 10
436.576690393422
 20
194.592055239899
  0
LWPOLYLINE
  5
2A8
330
1F
100
AcDbEntity
  8
Sichtbare_Kanten_TC_020513_DIN_
  6
Continuous
 62
     7
100
AcDbPolyline
 90
        2
 70
     0
 43
0.5
 10
436.576690393422
 20
228.592055239899
 10
436.576690393423
 20
230.342055239899
  0
LWPOLYLINE
  5
2A9
330
1F
100
AcDbEntity
  8
Sichtbare_Kanten_TC_020513_DIN_
  6
Continuous
 62
     7
100
AcDbPolyline
 90
        2
 70
     0
 43
0.5
 10
501.076690393418
 20
153.842055239899
 10
504.076690393419
 20
153.842055239899
  0
LWPOLYLINE
  5
2AA
330
1F
100
AcDbEntity
  8
Sichtbare_Kanten_TC_020513_DIN_
  6
Continuous
 62
     7
100
AcDbPolyline
 90
        2
 70
     0
 43
0.5
 10
501.076690393418
 20
153.842055239899
 10
465.576690393418
 20
153.842055239899
  0
LWPOLYLINE
  5
2AB
330
1F
100
AcDbEntity
  8
Sichtbare_Kanten_TC_020513_DIN_
  6
Continuous
 62
     7
100
AcDbPolyline
 90
        2
 70
     0
 43
0.5
 10
462.576690393419
 20
153.842055239899
 10
465.576690393418
 20
153.842055239899
  0
LWPOLYLINE
  5
2AC
330
1F
100
AcDbEntity
  8
Sichtbare_Kanten_TC_020513_DIN_
  6
Continuous
 62
     7
100
AcDbPolyline
 90
        2
 70
     0
 43
0.5
 10
461.57669087026
 20
154.84205512069
 10
461.576690870259
 20
152.842055239899
  0
LWPOLYLINE
  5
2AD
330
1F
100
AcDbEntity
  8
Sichtbare_Kanten_TC_020513_DIN_
  6
Continuous
 62
     7
100
AcDbPolyline
 90
        2
 70
     0
 43
0.5
 10
505.076689916584
 20
152.842055239899
 10
505.076689916586
 20
154.84205512069
  0
LWPOLYLINE
  5
2AE
330
1F
100
AcDbEntity
  8
Sichtbare_Kanten_TC_020513_DIN_
  6
Continuous
 62
     7
100
AcDbPolyline
 90
        2
 70
     0
 43
0.5
 10
461.576690393423
 20
154.842055239899
 10
461.576690393428
 20
171.342055239899
  0
LWPOLYLINE
  5
2AF
330
1F
100
AcDbEntity
  8
Sichtbare_Kanten_TC_020513_DIN_
  6
Continuous
 62
     7
100
AcDbPolyline
 90
        2
 70
     0
 43
0.5
 10
461.576690393419
 20
151.342055239899
 10
461.576690393419
 20
152.842055239899
  0
LWPOLYLINE
  5
2B0
330
1F
100
AcDbEntity
  8
Sichtbare_Kanten_TC_020513_DIN_
  6
Continuous
 62
     7
100
AcDbPolyline
 90
        2
 70
     0
 43
0.5
 10
505.076690393419
 20
151.342055239899
 10
505.076690393419
 20
152.842055239899
  0
LWPOLYLINE
  5
2B1
330
1F
100
AcDbEntity
  8
Sichtbare_Kanten_TC_020513_DIN_
  6
Continuous
 62
     7
100
AcDbPolyline
 90
        2
 70
     0
 43
0.5
 10
505.076690393423
 20
154.842055239899
 10
505.076690393428
 20
171.342055239899
  0
LWPOLYLINE
  5
2B2
330
1F
100
AcDbEntity
  8
Sichtbare_Kanten_TC_020513_DIN_
  6
Continuous
 62
     7
100
AcDbPolyline
 90
        2
 70
     0
 43
0.5
 10
455.076690393428
 20
165.092055239899
 10
455.326690393428
 20
164.842055239899
  0
LWPOLYLINE
  5
2B3
330
1F
100
AcDbEntity
  8
Sichtbare_Kanten_TC_020513_DIN_
  6
Continuous
 62
     7
100
AcDbPolyline
 90
        2
 70
     0
 43
0.5
 10
455.076690393428
 20
169.592055239899
 10
455.326690393428
 20
169.842055239899
  0
LWPOLYLINE
  5
2B4
330
1F
100
AcDbEntity
  8
Sichtbare_Kanten_TC_020513_DIN_
  6
Continuous
 62
     7
100
AcDbPolyline
 90
        2
 70
     0
 43
0.5
 10
455.326690393428
 20
164.842055239899
 10
460.076690393428
 20
164.842055239899
  0
LWPOLYLINE
  5
2B5
330
1F
100
AcDbEntity
  8
Sichtbare_Kanten_TC_020513_DIN_
  6
Continuous
 62
     7
100
AcDbPolyline
 90
        2
 70
     0
 43
0.5
 10
455.326690393428
 20
169.842055239899
 10
460.076690393428
 20
169.842055239899
  0
LWPOLYLINE
  5
2B6
330
1F
100
AcDbEntity
  8
Sichtbare_Kanten_TC_020513_DIN_
  6
Continuous
 62
     7
100
AcDbPolyline
 90
        2
 70
     0
 43
0.5
 10
460.076690393428
 20
164.842055239899
 10
461.576690393428
 20
163.342055239899
  0
LWPOLYLINE
  5
2B7
330
1F
100
AcDbEntity
  8
Sichtbare_Kanten_TC_020513_DIN_
  6
Continuous
 62
     7
100
AcDbPolyline
 90
        2
 70
     0
 43
0.5
 10
460.076690393428
 20
169.842055239899
 10
461.576690393428
 20
171.342055239899
  0
LWPOLYLINE
  5
2B8
330
1F
100
AcDbEntity
  8
Sichtbare_Kanten_TC_020513_DIN_
  6
Continuous
 62
     7
100
AcDbPolyline
 90
        2
 70
     0
 43
0.5
 10
511.576690393428
 20
169.592055239899
 10
511.326690393428
 20
169.842055239899
  0
LWPOLYLINE
  5
2B9
330
1F
100
AcDbEntity
  8
Sichtbare_Kanten_TC_020513_DIN_
  6
Continuous
 62
     7
100
AcDbPolyline
 90
        2
 70
     0
 43
0.5
 10
511.576690393428
 20
165.092055239899
 10
511.326690393428
 20
164.842055239899
  0
LWPOLYLINE
  5
2BA
330
1F
100
AcDbEntity
  8
Sichtbare_Kanten_TC_020513_DIN_
  6
Continuous
 62
     7
100
AcDbPolyline
 90
        2
 70
     0
 43
0.5
 10
506.576690393428
 20
164.842055239899
 10
511.326690393428
 20
164.842055239899
  0
LWPOLYLINE
  5
2BB
330
1F
100
AcDbEntity
  8
Sichtbare_Kanten_TC_020513_DIN_
  6
Continuous
 62
     7
100
AcDbPolyline
 90
        2
 70
     0
 43
0.5
 10
506.576690393428
 20
169.842055239899
 10
511.326690393428
 20
169.842055239899
  0
LWPOLYLINE
  5
2BC
330
1F
100
AcDbEntity
  8
Sichtbare_Kanten_TC_020513_DIN_
  6
Continuous
 62
     7
100
AcDbPolyline
 90
        2
 70
     0
 43
0.5
 10
506.576690393428
 20
169.842055239899
 10
505.076690393428
 20
171.342055239899
  0
LWPOLYLINE
  5
2BD
330
1F
100
AcDbEntity
  8
Sichtbare_Kanten_TC_020513_DIN_
  6
Continuous
 62
     7
100
AcDbPolyline
 90
        2
 70
     0
 43
0.5
 10
506.576690393428
 20
164.842055239899
 10
505.076690393428
 20
163.342055239899
  0
LWPOLYLINE
  5
2BE
330
1F
100
AcDbEntity
  8
Sichtbare_Kanten_TC_020513_DIN_
  6
Continuous
 62
     7
100
AcDbPolyline
 90
        2
 70
     0
 43
0.5
 10
455.076690393428
 20
165.092055239899
 10
455.076690393428
 20
169.592055239899
  0
LWPOLYLINE
  5
2BF
330
1F
100
AcDbEntity
  8
Sichtbare_Kanten_TC_020513_DIN_
  6
Continuous
 62
     7
100
AcDbPolyline
 90
        2
 70
     0
 43
0.5
 10
455.326690393428
 20
164.842055239899
 10
455.326690393428
 20
169.842055239899
  0
LWPOLYLINE
  5
2C0
330
1F
100
AcDbEntity
  8
Sichtbare_Kanten_TC_020513_DIN_
  6
Continuous
 62
     7
100
AcDbPolyline
 90
        2
 70
     0
 43
0.5
 10
460.076690393428
 20
164.842055239899
 10
460.076690393428
 20
169.842055239899
  0
LWPOLYLINE
  5
2C1
330
1F
100
AcDbEntity
  8
Sichtbare_Kanten_TC_020513_DIN_
  6
Continuous
 62
     7
100
AcDbPolyline
 90
        2
 70
     0
 43
0.5
 10
511.576690393428
 20
165.092055239899
 10
511.576690393428
 20
169.592055239899
  0
LWPOLYLINE
  5
2C2
330
1F
100
AcDbEntity
  8
Sichtbare_Kanten_TC_020513_DIN_
  6
Continuous
 62
     7
100
AcDbPolyline
 90
        2
 70
     0
 43
0.5
 10
511.326690393428
 20
164.842055239899
 10
511.326690393428
 20
169.842055239899
  0
LWPOLYLINE
  5
2C3
330
1F
100
AcDbEntity
  8
Sichtbare_Kanten_TC_020513_DIN_
  6
Continuous
 62
     7
100
AcDbPolyline
 90
        2
 70
     0
 43
0.5
 10
506.576690393428
 20
164.842055239899
 10
506.576690393428
 20
169.842055239899
  0
LWPOLYLINE
  5
2C4
330
1F
100
AcDbEntity
  8
Sichtbare_Kanten_TC_020513_DIN_
  6
Continuous
 62
     7
100
AcDbPolyline
 90
        2
 70
     0
 43
0.5
 10
310.833137379857
 20
181.342055239899
 10
310.833137379857
 20
180.842055239899
  0
LWPOLYLINE
  5
2C5
330
1F
100
AcDbEntity
  8
Sichtbare_Kanten_TC_020513_DIN_
  6
Continuous
 62
     7
100
AcDbPolyline
 90
        2
 70
     0
 43
0.5
 10
292.533137379857
 20
180.842055239899
 10
292.533137379857
 20
181.342055239899
  0
LWPOLYLINE
  5
2C6
330
1F
100
AcDbEntity
  8
Sichtbare_Kanten_TC_020513_DIN_
  6
Continuous
 62
     7
100
AcDbPolyline
 90
        2
 70
     0
 43
0.5
 10
288.433137379857
 20
178.342055239899
 10
292.533137379857
 20
178.342055239899
  0
LWPOLYLINE
  5
2C7
330
1F
100
AcDbEntity
  8
Sichtbare_Kanten_TC_020513_DIN_
  6
Continuous
 62
     7
100
AcDbPolyline
 90
        2
 70
     0
 43
0.5
 10
310.833137379857
 20
178.342055239899
 10
314.933137379857
 20
178.342055239899
  0
LWPOLYLINE
  5
2C8
330
1F
100
AcDbEntity
  8
Sichtbare_Kanten_TC_020513_DIN_
  6
Continuous
 62
     7
100
AcDbPolyline
 90
        2
 70
     0
 43
0.5
 10
314.933137379857
 20
180.842055239899
 10
314.933137379857
 20
176.842055239899
  0
LWPOLYLINE
  5
2C9
330
1F
100
AcDbEntity
  8
Sichtbare_Kanten_TC_020513_DIN_
  6
Continuous
 62
     7
100
AcDbPolyline
 90
        2
 70
     0
 43
0.5
 10
310.833137379857
 20
180.842055239899
 10
314.933137379857
 20
180.842055239899
  0
LWPOLYLINE
  5
2CA
330
1F
100
AcDbEntity
  8
Sichtbare_Kanten_TC_020513_DIN_
  6
Continuous
 62
     7
100
AcDbPolyline
 90
        2
 70
     0
 43
0.5
 10
292.533137379857
 20
178.342055239899
 10
292.533137379857
 20
178.93557445002
  0
LWPOLYLINE
  5
2CB
330
1F
100
AcDbEntity
  8
Sichtbare_Kanten_TC_020513_DIN_
  6
Continuous
 62
     7
100
AcDbPolyline
 90
        2
 70
     0
 43
0.5
 10
292.533137379857
 20
180.842055239899
 10
292.533137379857
 20
178.93557445002
  0
LWPOLYLINE
  5
2CC
330
1F
100
AcDbEntity
  8
Sichtbare_Kanten_TC_020513_DIN_
  6
Continuous
 62
     7
100
AcDbPolyline
 90
        2
 70
     0
 43
0.5
 10
310.833137379857
 20
178.93557445002
 10
310.833137379857
 20
180.842055239899
  0
LWPOLYLINE
  5
2CD
330
1F
100
AcDbEntity
  8
Sichtbare_Kanten_TC_020513_DIN_
  6
Continuous
 62
     7
100
AcDbPolyline
 90
        2
 70
     0
 43
0.5
 10
310.833137379857
 20
178.93557445002
 10
310.833137379857
 20
178.342055239899
  0
LWPOLYLINE
  5
2CE
330
1F
100
AcDbEntity
  8
Sichtbare_Kanten_TC_020513_DIN_
  6
Continuous
 62
     7
100
AcDbPolyline
 90
        2
 70
     0
 43
0.5
 10
288.433137379857
 20
176.842055239899
 10
288.433137379857
 20
180.842055239899
  0
LWPOLYLINE
  5
2CF
330
1F
100
AcDbEntity
  8
Sichtbare_Kanten_TC_020513_DIN_
  6
Continuous
 62
     7
100
AcDbPolyline
 90
        2
 70
     0
 43
0.5
 10
288.433137379857
 20
180.842055239899
 10
292.533137379857
 20
180.842055239899
  0
LWPOLYLINE
  5
2D0
330
1F
100
AcDbEntity
  8
Sichtbare_Kanten_TC_020513_DIN_
  6
Continuous
 62
     7
100
AcDbPolyline
 90
        2
 70
     0
 43
0.5
 10
361.683137379857
 20
171.342055239899
 10
361.683137379857
 20
176.842055239899
  0
LWPOLYLINE
  5
2D1
330
1F
100
AcDbEntity
  8
Sichtbare_Kanten_TC_020513_DIN_
  6
Continuous
 62
     7
100
AcDbPolyline
 90
        2
 70
     0
 43
0.5
 10
355.683137379857
 20
171.342055239899
 10
361.683137379857
 20
171.342055239899
  0
LWPOLYLINE
  5
2D2
330
1F
100
AcDbEntity
  8
Sichtbare_Kanten_TC_020513_DIN_
  6
Continuous
 62
     7
100
AcDbPolyline
 90
        2
 70
     0
 43
0.5
 10
355.683137379857
 20
171.342055239899
 10
247.683137379857
 20
171.342055239899
  0
LWPOLYLINE
  5
2D3
330
1F
100
AcDbEntity
  8
Sichtbare_Kanten_TC_020513_DIN_
  6
Continuous
 62
     7
100
AcDbPolyline
 90
        2
 70
     0
 43
0.5
 10
241.683137379857
 20
171.342055239899
 10
247.683137379857
 20
171.342055239899
  0
LWPOLYLINE
  5
2D4
330
1F
100
AcDbEntity
  8
Sichtbare_Kanten_TC_020513_DIN_
  6
Continuous
 62
     7
100
AcDbPolyline
 90
        2
 70
     0
 43
0.5
 10
241.683137379857
 20
171.342055239899
 10
241.683137379857
 20
176.842055239899
  0
LWPOLYLINE
  5
2D5
330
1F
100
AcDbEntity
  8
Sichtbare_Kanten_TC_020513_DIN_
  6
Continuous
 62
     7
100
AcDbPolyline
 90
        2
 70
     0
 43
0.5
 10
355.683137379857
 20
176.842055239899
 10
361.683137379857
 20
176.842055239899
  0
LWPOLYLINE
  5
2D6
330
1F
100
AcDbEntity
  8
Sichtbare_Kanten_TC_020513_DIN_
  6
Continuous
 62
     7
100
AcDbPolyline
 90
        2
 70
     0
 43
0.5
 10
355.683137379857
 20
176.842055239899
 10
247.683137379857
 20
176.842055239899
  0
LWPOLYLINE
  5
2D7
330
1F
100
AcDbEntity
  8
Sichtbare_Kanten_TC_020513_DIN_
  6
Continuous
 62
     7
100
AcDbPolyline
 90
        2
 70
     0
 43
0.5
 10
241.683137379857
 20
176.842055239899
 10
247.683137379857
 20
176.842055239899
  0
LWPOLYLINE
  5
2D8
330
1F
100
AcDbEntity
  8
Sichtbare_Kanten_TC_020513_DIN_
  6
Continuous
 62
     7
100
AcDbPolyline
 90
        2
 70
     0
 43
0.5
 10
232.433137379857
 20
153.842055239899
 10
235.433137379857
 20
153.842055239899
  0
LWPOLYLINE
  5
2D9
330
1F
100
AcDbEntity
  8
Sichtbare_Kanten_TC_020513_DIN_
  6
Continuous
 62
     7
100
AcDbPolyline
 90
        2
 70
     0
 43
0.5
 10
243.03415789429
 20
153.842055239899
 10
235.433137379857
 20
153.842055239899
  0
LWPOLYLINE
  5
2DA
330
1F
100
AcDbEntity
  8
Sichtbare_Kanten_TC_020513_DIN_
  6
Continuous
 62
     7
100
AcDbPolyline
 90
        2
 70
     0
 43
0.5
 10
367.933137379857
 20
153.842055239899
 10
370.933137379857
 20
153.842055239899
  0
LWPOLYLINE
  5
2DB
330
1F
100
AcDbEntity
  8
Sichtbare_Kanten_TC_020513_DIN_
  6
Continuous
 62
     7
100
AcDbPolyline
 90
        2
 70
     0
 43
0.5
 10
367.933137379857
 20
153.842055239899
 10
360.332116865423
 20
153.842055239899
  0
LWPOLYLINE
  5
2DC
330
1F
100
AcDbEntity
  8
Sichtbare_Kanten_TC_020513_DIN_
  6
Continuous
 62
     7
100
AcDbPolyline
 90
        2
 70
     0
 43
0.5
 10
241.933137379857
 20
154.842055239899
 10
241.933137379857
 20
171.342055239899
  0
LWPOLYLINE
  5
2DD
330
1F
100
AcDbEntity
  8
Sichtbare_Kanten_TC_020513_DIN_
  6
Continuous
 62
     7
100
AcDbPolyline
 90
        2
 70
     0
 43
0.5
 10
361.433137379857
 20
154.842055239899
 10
361.433137379857
 20
171.342055239899
  0
LWPOLYLINE
  5
2DE
330
1F
100
AcDbEntity
  8
Sichtbare_Kanten_TC_020513_DIN_
  6
Continuous
 62
     7
100
AcDbPolyline
 90
        2
 70
     0
 43
0.5
 10
371.933137379857
 20
151.342055239899
 10
371.933137379857
 20
152.842055239899
  0
LWPOLYLINE
  5
2DF
330
1F
100
AcDbEntity
  8
Sichtbare_Kanten_TC_020513_DIN_
  6
Continuous
 62
     7
100
AcDbPolyline
 90
        2
 70
     0
 43
0.5
 10
231.433137379857
 20
151.342055239899
 10
231.433137379857
 20
152.842055239899
  0
LWPOLYLINE
  5
2E0
330
1F
100
AcDbEntity
  8
Sichtbare_Kanten_TC_020513_DIN_
  6
Continuous
 62
     7
100
AcDbPolyline
 90
        2
 70
     0
 43
0.5
 10
367.933137379857
 20
151.342055239899
 10
372.933137379857
 20
151.342055239899
  0
LWPOLYLINE
  5
2E1
330
1F
100
AcDbEntity
  8
Sichtbare_Kanten_TC_020513_DIN_
  6
Continuous
 62
     7
100
AcDbPolyline
 90
        2
 70
     0
 43
0.5
 10
367.933137379857
 20
151.342055239899
 10
235.433137379857
 20
151.342055239899
  0
LWPOLYLINE
  5
2E2
330
1F
100
AcDbEntity
  8
Sichtbare_Kanten_TC_020513_DIN_
  6
Continuous
 62
     7
100
AcDbPolyline
 90
        2
 70
     0
 43
0.5
 10
230.433137379857
 20
151.342055239899
 10
235.433137379857
 20
151.342055239899
  0
LWPOLYLINE
  5
2E3
330
1F
100
AcDbEntity
  8
Sichtbare_Kanten_TC_020513_DIN_
  6
Continuous
 62
     7
100
AcDbPolyline
 90
        2
 70
     0
 43
0.5
 10
372.933137379857
 20
147.842055239899
 10
372.933137379857
 20
151.342055239899
  0
LWPOLYLINE
  5
2E4
330
1F
100
AcDbEntity
  8
Sichtbare_Kanten_TC_020513_DIN_
  6
Continuous
 62
     7
100
AcDbPolyline
 90
        2
 70
     0
 43
0.5
 10
230.433137379857
 20
147.842055239899
 10
230.433137379857
 20
151.342055239899
  0
LWPOLYLINE
  5
2E5
330
1F
100
AcDbEntity
  8
Sichtbare_Kanten_TC_020513_DIN_
  6
Continuous
 62
     7
100
AcDbPolyline
 90
        2
 70
     0
 43
0.5
 10
230.433137379857
 20
147.842055239899
 10
235.433137379857
 20
147.842055239899
  0
LWPOLYLINE
  5
2E6
330
1F
100
AcDbEntity
  8
Sichtbare_Kanten_TC_020513_DIN_
  6
Continuous
 62
     7
100
AcDbPolyline
 90
        2
 70
     0
 43
0.5
 10
367.933137379857
 20
147.842055239899
 10
235.433137379857
 20
147.842055239899
  0
LWPOLYLINE
  5
2E7
330
1F
100
AcDbEntity
  8
Sichtbare_Kanten_TC_020513_DIN_
  6
Continuous
 62
     7
100
AcDbPolyline
 90
        2
 70
     0
 43
0.5
 10
367.933137379857
 20
147.842055239899
 10
372.933137379857
 20
147.842055239899
  0
LWPOLYLINE
  5
2E8
330
1F
100
AcDbEntity
  8
Sichtbare_Kanten_TC_020513_DIN_
  6
Continuous
 62
     7
100
AcDbPolyline
 90
        2
 70
     0
 43
0.5
 10
296.383137379857
 20
180.614838521186
 10
306.983137379857
 20
180.614838521186
  0
LWPOLYLINE
  5
2E9
330
1F
100
AcDbEntity
  8
Sichtbare_Kanten_TC_020513_DIN_
  6
Continuous
 62
     7
100
AcDbPolyline
 90
        2
 70
     0
 43
0.5
 10
307.683137379857
 20
176.842055239899
 10
307.683137379857
 20
179.91899908443
  0
LWPOLYLINE
  5
2EA
330
1F
100
AcDbEntity
  8
Sichtbare_Kanten_TC_020513_DIN_
  6
Continuous
 62
     7
100
AcDbPolyline
 90
        2
 70
     0
 43
0.5
 10
295.683137379857
 20
179.91899908443
 10
295.683137379857
 20
176.842055239899
  0
LWPOLYLINE
  5
2EB
330
1F
100
AcDbEntity
  8
Sichtbare_Kanten_TC_020513_DIN_
  6
Continuous
 62
     7
100
AcDbPolyline
 90
        2
 70
     0
 43
0.5
 10
296.383137379857
 20
180.669271958612
 10
306.983137379857
 20
180.669271958612
  0
LWPOLYLINE
  5
2EC
330
1F
100
AcDbEntity
  8
Sichtbare_Kanten_TC_020513_DIN_
  6
Continuous
 62
     7
100
AcDbPolyline
 90
        2
 70
     0
 43
0.5
 10
307.683137379857
 20
179.91899908443
 10
307.683137379857
 20
179.973432521856
  0
LWPOLYLINE
  5
2ED
330
1F
100
AcDbEntity
  8
Sichtbare_Kanten_TC_020513_DIN_
  6
Continuous
 62
     7
100
AcDbPolyline
 90
        2
 70
     0
 43
0.5
 10
295.683137379857
 20
179.973432521856
 10
295.683137379857
 20
179.91899908443
  0
LWPOLYLINE
  5
2EE
330
1F
100
AcDbEntity
  8
Sichtbare_Kanten_TC_020513_DIN_
  6
Continuous
 62
     7
100
AcDbPolyline
 90
        2
 70
     0
 43
0.5
 10
292.533137379857
 20
178.342055239899
 10
292.683137379857
 20
178.342055239899
  0
LWPOLYLINE
  5
2EF
330
1F
100
AcDbEntity
  8
Sichtbare_Kanten_TC_020513_DIN_
  6
Continuous
 62
     7
100
AcDbPolyline
 90
        2
 70
     0
 43
0.5
 10
310.683137379857
 20
178.342055239899
 10
310.833137379857
 20
178.342055239899
  0
LWPOLYLINE
  5
2F0
330
1F
100
AcDbEntity
  8
Sichtbare_Kanten_TC_020513_DIN_
  6
Continuous
 62
     7
100
AcDbPolyline
 90
        2
 70
     0
 43
0.5
 10
288.683137379857
 20
176.842055239899
 10
288.683137379857
 20
178.342055239899
  0
LWPOLYLINE
  5
2F1
330
1F
100
AcDbEntity
  8
Sichtbare_Kanten_TC_020513_DIN_
  6
Continuous
 62
     7
100
AcDbPolyline
 90
        2
 70
     0
 43
0.5
 10
314.683137379857
 20
178.342055239899
 10
314.683137379857
 20
176.842055239899
  0
LWPOLYLINE
  5
2F2
330
1F
100
AcDbEntity
  8
Sichtbare_Kanten_TC_020513_DIN_
  6
Continuous
 62
     7
100
AcDbPolyline
 90
        2
 70
     0
 43
0.5
 10
295.704001648347
 20
180.142055239899
 10
292.683137379857
 20
180.142055239899
  0
LWPOLYLINE
  5
2F3
330
1F
100
AcDbEntity
  8
Sichtbare_Kanten_TC_020513_DIN_
  6
Continuous
 62
     7
100
AcDbPolyline
 90
        2
 70
     0
 43
0.5
 10
310.683137379857
 20
180.142055239899
 10
307.662273111367
 20
180.142055239899
  0
LWPOLYLINE
  5
2F4
330
1F
100
AcDbEntity
  8
Sichtbare_Kanten_TC_020513_DIN_
  6
Continuous
 62
     7
100
AcDbPolyline
 90
        2
 70
     0
 43
0.5
 10
292.683137379857
 20
188.592055239899
 10
292.683137379857
 20
180.142055239899
  0
LWPOLYLINE
  5
2F5
330
1F
100
AcDbEntity
  8
Sichtbare_Kanten_TC_020513_DIN_
  6
Continuous
 62
     7
100
AcDbPolyline
 90
        2
 70
     0
 43
0.5
 10
292.683137379857
 20
179.942055239899
 10
292.683137379857
 20
180.142055239899
  0
LWPOLYLINE
  5
2F6
330
1F
100
AcDbEntity
  8
Sichtbare_Kanten_TC_020513_DIN_
  6
Continuous
 62
     7
100
AcDbPolyline
 90
        2
 70
     0
 43
0.5
 10
292.683137379857
 20
179.942055239899
 10
292.683137379857
 20
176.842055239899
  0
LWPOLYLINE
  5
2F7
330
1F
100
AcDbEntity
  8
Sichtbare_Kanten_TC_020513_DIN_
  6
Continuous
 62
     7
100
AcDbPolyline
 90
        2
 70
     0
 43
0.5
 10
310.683137379857
 20
176.842055239899
 10
310.683137379857
 20
179.942055239899
  0
LWPOLYLINE
  5
2F8
330
1F
100
AcDbEntity
  8
Sichtbare_Kanten_TC_020513_DIN_
  6
Continuous
 62
     7
100
AcDbPolyline
 90
        2
 70
     0
 43
0.5
 10
310.683137379857
 20
180.142055239899
 10
310.683137379857
 20
179.942055239899
  0
LWPOLYLINE
  5
2F9
330
1F
100
AcDbEntity
  8
Sichtbare_Kanten_TC_020513_DIN_
  6
Continuous
 62
     7
100
AcDbPolyline
 90
        2
 70
     0
 43
0.5
 10
310.683137379857
 20
180.142055239899
 10
310.683137379857
 20
188.592055239899
  0
LWPOLYLINE
  5
2FA
330
1F
100
AcDbEntity
  8
Sichtbare_Kanten_TC_020513_DIN_
  6
Continuous
 62
     7
100
AcDbPolyline
 90
        2
 70
     0
 43
0.5
 10
244.183137379857
 20
228.592055239899
 10
244.183137379857
 20
194.592055239899
  0
LWPOLYLINE
  5
2FB
330
1F
100
AcDbEntity
  8
Sichtbare_Kanten_TC_020513_DIN_
  6
Continuous
 62
     7
100
AcDbPolyline
 90
        2
 70
     0
 43
0.5
 10
246.683137379857
 20
192.092055239899
 10
356.683137379857
 20
192.092055239899
  0
LWPOLYLINE
  5
2FC
330
1F
100
AcDbEntity
  8
Sichtbare_Kanten_TC_020513_DIN_
  6
Continuous
 62
     7
100
AcDbPolyline
 90
        2
 70
     0
 43
0.5
 10
359.183137379857
 20
194.592055239899
 10
359.183137379857
 20
228.592055239899
  0
LWPOLYLINE
  5
2FD
330
1F
100
AcDbEntity
  8
Sichtbare_Kanten_TC_020513_DIN_
  6
Continuous
 62
     7
100
AcDbPolyline
 90
        2
 70
     0
 43
0.5
 10
356.683137379857
 20
231.092055239899
 10
246.683137379857
 20
231.092055239899
  0
LWPOLYLINE
  5
2FE
330
1F
100
AcDbEntity
  8
Sichtbare_Kanten_TC_020513_DIN_
  6
Continuous
 62
     7
100
AcDbPolyline
 90
        2
 70
     0
 43
0.5
 10
241.683137379857
 20
195.342055239899
 10
241.683137379857
 20
227.842055239899
  0
LWPOLYLINE
  5
2FF
330
1F
100
AcDbEntity
  8
Sichtbare_Kanten_TC_020513_DIN_
  6
Continuous
 62
     7
100
AcDbPolyline
 90
        2
 70
     0
 43
0.5
 10
247.433137379857
 20
233.592055239899
 10
355.933137379857
 20
233.592055239899
  0
LWPOLYLINE
  5
300
330
1F
100
AcDbEntity
  8
Sichtbare_Kanten_TC_020513_DIN_
  6
Continuous
 62
     7
100
AcDbPolyline
 90
        2
 70
     0
 43
0.5
 10
361.683137379857
 20
227.842055239899
 10
361.683137379857
 20
195.342055239899
  0
LWPOLYLINE
  5
301
330
1F
100
AcDbEntity
  8
Sichtbare_Kanten_TC_020513_DIN_
  6
Continuous
 62
     7
100
AcDbPolyline
 90
        2
 70
     0
 43
0.5
 10
355.933137379857
 20
189.592055239899
 10
247.433137379857
 20
189.592055239899
  0
LWPOLYLINE
  5
302
330
1F
100
AcDbEntity
  8
Sichtbare_Kanten_TC_020513_DIN_
  6
Continuous
 62
     7
100
AcDbPolyline
 90
        2
 70
     0
 43
0.5
 10
235.433137379857
 20
207.092055239899
 10
240.683137379857
 20
207.092055239899
  0
LWPOLYLINE
  5
303
330
1F
100
AcDbEntity
  8
Sichtbare_Kanten_TC_020513_DIN_
  6
Continuous
 62
     7
100
AcDbPolyline
 90
        2
 70
     0
 43
0.5
 10
235.433137379857
 20
216.092055239899
 10
240.683137379857
 20
216.092055239899
  0
LWPOLYLINE
  5
304
330
1F
100
AcDbEntity
  8
Sichtbare_Kanten_TC_020513_DIN_
  6
Continuous
 62
     7
100
AcDbPolyline
 90
        2
 70
     0
 43
0.5
 10
235.433137379857
 20
207.34941455278
 10
235.433137379857
 20
207.092055239899
  0
LWPOLYLINE
  5
305
330
1F
100
AcDbEntity
  8
Sichtbare_Kanten_TC_020513_DIN_
  6
Continuous
 62
     7
100
AcDbPolyline
 90
        2
 70
     0
 43
0.5
 10
235.433137379857
 20
216.092055239899
 10
235.433137379857
 20
215.834695927018
  0
LWPOLYLINE
  5
306
330
1F
100
AcDbEntity
  8
Sichtbare_Kanten_TC_020513_DIN_
  6
Continuous
 62
     7
100
AcDbPolyline
 90
        2
 70
     0
 43
0.5
 10
240.683137379857
 20
207.34941455278
 10
235.433137379857
 20
207.34941455278
  0
LWPOLYLINE
  5
307
330
1F
100
AcDbEntity
  8
Sichtbare_Kanten_TC_020513_DIN_
  6
Continuous
 62
     7
100
AcDbPolyline
 90
        2
 70
     0
 43
0.5
 10
235.433137379857
 20
207.34941455278
 10
235.433137379857
 20
215.834695927018
  0
LWPOLYLINE
  5
308
330
1F
100
AcDbEntity
  8
Sichtbare_Kanten_TC_020513_DIN_
  6
Continuous
 62
     7
100
AcDbPolyline
 90
        2
 70
     0
 43
0.5
 10
240.683137379857
 20
215.834695927018
 10
235.433137379857
 20
215.834695927018
  0
LWPOLYLINE
  5
309
330
1F
100
AcDbEntity
  8
Sichtbare_Kanten_TC_020513_DIN_
  6
Continuous
 62
     7
100
AcDbPolyline
 90
        2
 70
     0
 43
0.5
 10
362.683137379857
 20
207.092055239899
 10
367.933137379857
 20
207.092055239899
  0
LWPOLYLINE
  5
30A
330
1F
100
AcDbEntity
  8
Sichtbare_Kanten_TC_020513_DIN_
  6
Continuous
 62
     7
100
AcDbPolyline
 90
        2
 70
     0
 43
0.5
 10
362.683137379857
 20
216.092055239899
 10
367.933137379857
 20
216.092055239899
  0
LWPOLYLINE
  5
30B
330
1F
100
AcDbEntity
  8
Sichtbare_Kanten_TC_020513_DIN_
  6
Continuous
 62
     7
100
AcDbPolyline
 90
        2
 70
     0
 43
0.5
 10
367.933137379857
 20
207.34941455278
 10
367.933137379857
 20
207.092055239899
  0
LWPOLYLINE
  5
30C
330
1F
100
AcDbEntity
  8
Sichtbare_Kanten_TC_020513_DIN_
  6
Continuous
 62
     7
100
AcDbPolyline
 90
        2
 70
     0
 43
0.5
 10
367.933137379857
 20
216.092055239899
 10
367.933137379857
 20
215.834695927018
  0
LWPOLYLINE
  5
30D
330
1F
100
AcDbEntity
  8
Sichtbare_Kanten_TC_020513_DIN_
  6
Continuous
 62
     7
100
AcDbPolyline
 90
        2
 70
     0
 43
0.5
 10
362.683137379857
 20
215.834695927018
 10
367.933137379857
 20
215.834695927018
  0
LWPOLYLINE
  5
30E
330
1F
100
AcDbEntity
  8
Sichtbare_Kanten_TC_020513_DIN_
  6
Continuous
 62
     7
100
AcDbPolyline
 90
        2
 70
     0
 43
0.5
 10
367.933137379857
 20
207.34941455278
 10
367.933137379857
 20
215.834695927018
  0
LWPOLYLINE
  5
30F
330
1F
100
AcDbEntity
  8
Sichtbare_Kanten_TC_020513_DIN_
  6
Continuous
 62
     7
100
AcDbPolyline
 90
        2
 70
     0
 43
0.5
 10
362.683137379857
 20
207.34941455278
 10
367.933137379857
 20
207.34941455278
  0
LWPOLYLINE
  5
310
330
1F
100
AcDbEntity
  8
Sichtbare_Kanten_TC_020513_DIN_
  6
Continuous
 62
     7
100
AcDbPolyline
 90
        2
 70
     0
 43
0.5
 10
356.683137379857
 20
188.592055239899
 10
246.683137379857
 20
188.592055239899
  0
LWPOLYLINE
  5
311
330
1F
100
AcDbEntity
  8
Sichtbare_Kanten_TC_020513_DIN_
  6
Continuous
 62
     7
100
AcDbPolyline
 90
        2
 70
     0
 43
0.5
 10
292.183137379857
 20
234.592055239899
 10
292.183137379857
 20
237.592055239899
  0
LWPOLYLINE
  5
312
330
1F
100
AcDbEntity
  8
Sichtbare_Kanten_TC_020513_DIN_
  6
Continuous
 62
     7
100
AcDbPolyline
 90
        2
 70
     0
 43
0.5
 10
311.183137379857
 20
237.592055239899
 10
311.183137379857
 20
234.592055239899
  0
LWPOLYLINE
  5
313
330
1F
100
AcDbEntity
  8
Sichtbare_Kanten_TC_020513_DIN_
  6
Continuous
 62
     7
100
AcDbPolyline
 90
        2
 70
     0
 43
0.5
 10
292.183137379857
 20
237.592055239899
 10
311.183137379857
 20
237.592055239899
  0
LWPOLYLINE
  5
314
330
1F
100
AcDbEntity
  8
Sichtbare_Kanten_TC_020513_DIN_
  6
Continuous
 62
     7
100
AcDbPolyline
 90
        2
 70
     0
 43
0.5
 10
362.683137379857
 20
228.592055239899
 10
362.683137379857
 20
194.592055239899
  0
LWPOLYLINE
  5
315
330
1F
100
AcDbEntity
  8
Sichtbare_Kanten_TC_020513_DIN_
  6
Continuous
 62
     7
100
AcDbPolyline
 90
        2
 70
     0
 43
0.5
 10
311.183137379857
 20
234.592055239899
 10
356.683137379857
 20
234.592055239899
  0
LWPOLYLINE
  5
316
330
1F
100
AcDbEntity
  8
Sichtbare_Kanten_TC_020513_DIN_
  6
Continuous
 62
     7
100
AcDbPolyline
 90
        2
 70
     0
 43
0.5
 10
240.683137379857
 20
194.592055239899
 10
240.683137379857
 20
228.592055239899
  0
LWPOLYLINE
  5
317
330
1F
100
AcDbEntity
  8
Sichtbare_Kanten_TC_020513_DIN_
  6
Continuous
 62
     7
100
AcDbPolyline
 90
        2
 70
     0
 43
0.5
 10
246.683137379857
 20
234.592055239899
 10
292.183137379857
 20
234.592055239899
  0
LWPOLYLINE
  5
318
330
1F
100
AcDbEntity
  8
Sichtbare_Kanten_TC_020513_DIN_
  6
Continuous
 62
     7
100
AcDbPolyline
 90
        2
 70
     0
 43
0.5
 10
287.183137379857
 20
181.342055239899
 10
292.533137379857
 20
181.342055239899
  0
LWPOLYLINE
  5
319
330
1F
100
AcDbEntity
  8
Sichtbare_Kanten_TC_020513_DIN_
  6
Continuous
 62
     7
100
AcDbPolyline
 90
        2
 70
     0
 43
0.5
 10
310.833137379857
 20
181.342055239899
 10
316.183137379857
 20
181.342055239899
  0
LWPOLYLINE
  5
31A
330
1F
100
AcDbEntity
  8
Sichtbare_Kanten_TC_020513_DIN_
  6
Continuous
 62
     7
100
AcDbPolyline
 90
        2
 70
     0
 43
0.5
 10
286.683137379857
 20
180.842055239899
 10
286.683137379857
 20
176.842055239899
  0
LWPOLYLINE
  5
31B
330
1F
100
AcDbEntity
  8
Sichtbare_Kanten_TC_020513_DIN_
  6
Continuous
 62
     7
100
AcDbPolyline
 90
        2
 70
     0
 43
0.5
 10
316.683137379857
 20
176.842055239899
 10
316.683137379857
 20
180.842055239899
  0
LWPOLYLINE
  5
31C
330
1F
100
AcDbEntity
  8
Sichtbare_Kanten_TC_020513_DIN_
  6
Continuous
 62
     7
100
AcDbPolyline
 90
        2
 70
     0
 43
0.5
 10
302.808137379857
 20
156.381237731997
 10
302.808137379857
 20
162.145635053585
  0
LWPOLYLINE
  5
31D
330
1F
100
AcDbEntity
  8
Sichtbare_Kanten_TC_020513_DIN_
  6
Continuous
 62
     7
100
AcDbPolyline
 90
        2
 70
     0
 43
0.5
 10
303.558137379857
 20
163.3028727478
 10
303.558137379857
 20
156.381237731997
  0
LWPOLYLINE
  5
31E
330
1F
100
AcDbEntity
  8
Sichtbare_Kanten_TC_020513_DIN_
  6
Continuous
 62
     7
100
AcDbPolyline
 90
        2
 70
     0
 43
0.5
 10
301.683137379857
 20
161.870810752539
 10
302.879408520366
 20
163.52281314862
  0
LWPOLYLINE
  5
31F
330
1F
100
AcDbEntity
  8
Sichtbare_Kanten_TC_020513_DIN_
  6
Continuous
 62
     7
100
AcDbPolyline
 90
        2
 70
     0
 43
0.5
 10
300.486866239347
 20
163.52281314862
 10
301.683137379857
 20
161.870810752539
  0
LWPOLYLINE
  5
320
330
1F
100
AcDbEntity
  8
Sichtbare_Kanten_TC_020513_DIN_
  6
Continuous
 62
     7
100
AcDbPolyline
 90
        2
 70
     0
 43
0.5
 10
299.808137379857
 20
158.155276193536
 10
299.808137379857
 20
163.3028727478
  0
LWPOLYLINE
  5
321
330
1F
100
AcDbEntity
  8
Sichtbare_Kanten_TC_020513_DIN_
  6
Continuous
 62
     7
100
AcDbPolyline
 90
        2
 70
     0
 43
0.5
 10
300.558137379857
 20
162.145635053585
 10
300.558137379857
 20
158.155276193536
  0
LWPOLYLINE
  5
322
330
1F
100
AcDbEntity
  8
Sichtbare_Kanten_TC_020513_DIN_
  6
Continuous
 62
     7
100
AcDbPolyline
 90
        2
 70
     0
 43
0.5
 10
301.683137379857
 20
160.592055239899
 10
300.558137379857
 20
162.145635053585
  0
LWPOLYLINE
  5
323
330
1F
100
AcDbEntity
  8
Sichtbare_Kanten_TC_020513_DIN_
  6
Continuous
 62
     7
100
AcDbPolyline
 90
        2
 70
     0
 43
0.5
 10
302.808137379857
 20
162.145635053585
 10
301.683137379857
 20
160.592055239899
  0
LWPOLYLINE
  5
324
330
1F
100
AcDbEntity
  8
Sichtbare_Kanten_TC_020513_DIN_
  6
Continuous
 62
     7
100
AcDbPolyline
 90
        2
 70
     0
 43
0.5
 10
301.495741459798
 20
155.191033521844
 10
298.420741459798
 20
156.965071983383
  0
LWPOLYLINE
  5
325
330
1F
100
AcDbEntity
  8
Sichtbare_Kanten_TC_020513_DIN_
  6
Continuous
 62
     7
100
AcDbPolyline
 90
        2
 70
     0
 43
0.5
 10
298.983137379857
 20
157.506478049876
 10
301.870533299915
 20
155.840672711381
  0
LWPOLYLINE
  5
326
330
1F
100
AcDbEntity
  8
Sichtbare_Kanten_TC_020513_DIN_
  6
Continuous
 62
     7
100
AcDbPolyline
 90
        2
 70
     0
 43
0.5
 10
298.983137379857
 20
162.394218901647
 10
298.983137379857
 20
157.506478049876
  0
LWPOLYLINE
  5
327
330
1F
100
AcDbEntity
  8
Sichtbare_Kanten_TC_020513_DIN_
  6
Continuous
 62
     7
100
AcDbPolyline
 90
        2
 70
     0
 43
0.5
 10
298.233137379857
 20
157.289891578151
 10
298.233137379857
 20
162.394218901647
  0
LWPOLYLINE
  5
328
330
1F
100
AcDbEntity
  8
Sichtbare_Kanten_TC_020513_DIN_
  6
Continuous
 62
     7
100
AcDbPolyline
 90
        2
 70
     0
 43
0.5
 10
301.683137379857
 20
165.034122614327
 10
292.683553930847
 20
159.842055239899
  0
LWPOLYLINE
  5
329
330
1F
100
AcDbEntity
  8
Sichtbare_Kanten_TC_020513_DIN_
  6
Continuous
 62
     7
100
AcDbPolyline
 90
        2
 70
     0
 43
0.5
 10
310.682720828866
 20
159.842055239899
 10
301.683137379857
 20
165.034122614327
  0
LWPOLYLINE
  5
32A
330
1F
100
AcDbEntity
  8
Sichtbare_Kanten_TC_020513_DIN_
  6
Continuous
 62
     7
100
AcDbPolyline
 90
        2
 70
     0
 43
0.5
 10
301.683137379857
 20
154.64998786547
 10
310.682720828866
 20
159.842055239899
  0
LWPOLYLINE
  5
32B
330
1F
100
AcDbEntity
  8
Sichtbare_Kanten_TC_020513_DIN_
  6
Continuous
 62
     7
100
AcDbPolyline
 90
        2
 70
     0
 43
0.5
 10
292.683553930847
 20
159.842055239899
 10
301.683137379857
 20
154.64998786547
  0
LWPOLYLINE
  5
32C
330
1F
100
AcDbEntity
  8
Sichtbare_Kanten_TC_020513_DIN_
  6
Continuous
 62
     7
100
AcDbPolyline
 90
        2
 70
     0
 43
0.5
 10
296.733137379857
 20
158.155276193536
 10
296.733137379857
 20
161.528834286262
  0
LWPOLYLINE
  5
32D
330
1F
100
AcDbEntity
  8
Sichtbare_Kanten_TC_020513_DIN_
  6
Continuous
 62
     7
100
AcDbPolyline
 90
        2
 70
     0
 43
0.5
 10
297.483137379857
 20
161.528834286262
 10
297.483137379857
 20
158.155276193536
  0
LWPOLYLINE
  5
32E
330
1F
100
AcDbEntity
  8
Sichtbare_Kanten_TC_020513_DIN_
  6
Continuous
 62
     7
100
AcDbPolyline
 90
        2
 70
     0
 43
0.5
 10
307.120533299915
 20
158.21987967569
 10
304.870533299915
 20
156.921802752614
  0
LWPOLYLINE
  5
32F
330
1F
100
AcDbEntity
  8
Sichtbare_Kanten_TC_020513_DIN_
  6
Continuous
 62
     7
100
AcDbPolyline
 90
        2
 70
     0
 43
0.5
 10
305.058137379857
 20
157.895901126799
 10
306.745741459798
 20
158.869518865227
  0
LWPOLYLINE
  5
330
330
1F
100
AcDbEntity
  8
Sichtbare_Kanten_TC_020513_DIN_
  6
Continuous
 62
     7
100
AcDbPolyline
 90
        2
 70
     0
 43
0.5
 10
305.058137379857
 20
159.467055239899
 10
305.058137379857
 20
157.895901126799
  0
LWPOLYLINE
  5
331
330
1F
100
AcDbEntity
  8
Sichtbare_Kanten_TC_020513_DIN_
  6
Continuous
 62
     7
100
AcDbPolyline
 90
        2
 70
     0
 43
0.5
 10
306.933137379857
 20
159.467055239899
 10
305.058137379857
 20
159.467055239899
  0
LWPOLYLINE
  5
332
330
1F
100
AcDbEntity
  8
Sichtbare_Kanten_TC_020513_DIN_
  6
Continuous
 62
     7
100
AcDbPolyline
 90
        2
 70
     0
 43
0.5
 10
305.058137379857
 20
160.217055239899
 10
306.933137379857
 20
160.217055239899
  0
LWPOLYLINE
  5
333
330
1F
100
AcDbEntity
  8
Sichtbare_Kanten_TC_020513_DIN_
  6
Continuous
 62
     7
100
AcDbPolyline
 90
        2
 70
     0
 43
0.5
 10
305.058137379857
 20
161.788209352998
 10
305.058137379857
 20
160.217055239899
  0
LWPOLYLINE
  5
334
330
1F
100
AcDbEntity
  8
Sichtbare_Kanten_TC_020513_DIN_
  6
Continuous
 62
     7
100
AcDbPolyline
 90
        2
 70
     0
 43
0.5
 10
306.745741459798
 20
160.814591614571
 10
305.058137379857
 20
161.788209352998
  0
LWPOLYLINE
  5
335
330
1F
100
AcDbEntity
  8
Sichtbare_Kanten_TC_020513_DIN_
  6
Continuous
 62
     7
100
AcDbPolyline
 90
        2
 70
     0
 43
0.5
 10
304.870533299915
 20
162.762307727184
 10
307.120533299915
 20
161.464230804107
  0
LWPOLYLINE
  5
336
330
1F
100
AcDbEntity
  8
Sichtbare_Kanten_TC_020513_DIN_
  6
Continuous
 62
     7
100
AcDbPolyline
 90
        2
 70
     0
 43
0.5
 10
304.308137379857
 20
157.246622347382
 10
304.308137379857
 20
162.437488132416
  0
LWPOLYLINE
  5
337
330
1F
100
AcDbEntity
  8
Sichtbare_Kanten_TC_020513_DIN_
  6
Continuous
 62
     7
100
AcDbPolyline
 90
        2
 70
     0
 43
0.5
 10
311.433137379857
 20
159.842055239899
 10
301.683137379857
 20
154.217055239899
  0
LWPOLYLINE
  5
338
330
1F
100
AcDbEntity
  8
Sichtbare_Kanten_TC_020513_DIN_
  6
Continuous
 62
     7
100
AcDbPolyline
 90
        2
 70
     0
 43
0.5
 10
301.683137379857
 20
165.467055239899
 10
311.433137379857
 20
159.842055239899
  0
LWPOLYLINE
  5
339
330
1F
100
AcDbEntity
  8
Sichtbare_Kanten_TC_020513_DIN_
  6
Continuous
 62
     7
100
AcDbPolyline
 90
        2
 70
     0
 43
0.5
 10
291.933137379857
 20
159.842055239899
 10
301.683137379857
 20
165.467055239899
  0
LWPOLYLINE
  5
33A
330
1F
100
AcDbEntity
  8
Sichtbare_Kanten_TC_020513_DIN_
  6
Continuous
 62
     7
100
AcDbPolyline
 90
        2
 70
     0
 43
0.5
 10
301.683137379857
 20
154.217055239899
 10
291.933137379857
 20
159.842055239899
  0
LWPOLYLINE
  5
33B
330
1F
100
AcDbEntity
  8
Sichtbare_Kanten_TC_020513_DIN_
  6
Continuous
 62
     7
100
AcDbPolyline
 90
        2
 70
     0
 43
0.5
 10
444.076690393434
 20
150.842055239899
 42
0.4142135623731
 10
445.076690393434
 20
149.842055239899
  0
LWPOLYLINE
  5
33C
330
1F
100
AcDbEntity
  8
Sichtbare_Kanten_TC_020513_DIN_
  6
Continuous
 62
     7
100
AcDbPolyline
 90
        2
 70
     0
 43
0.5
 10
445.076690393434
 20
181.342055239899
 42
0.4142135623731
 10
444.076690393434
 20
180.342055239899
  0
LWPOLYLINE
  5
33D
330
1F
100
AcDbEntity
  8
Sichtbare_Kanten_TC_020513_DIN_
  6
Continuous
 62
     7
100
AcDbPolyline
 90
        2
 70
     0
 43
0.5
 10
441.48556141258
 20
172.726822047959
 42
0.34762769519013
 10
441.972101556325
 20
172.342055239899
  0
LWPOLYLINE
  5
33E
330
1F
100
AcDbEntity
  8
Sichtbare_Kanten_TC_020513_DIN_
  6
Continuous
 62
     7
100
AcDbPolyline
 90
        2
 70
     0
 43
0.5
 10
446.076690393419
 20
215.834695927018
 42
1.41421356237313
 10
446.076690393419
 20
207.34941455278
  0
LWPOLYLINE
  5
33F
330
1F
100
AcDbEntity
  8
Sichtbare_Kanten_TC_020513_DIN_
  6
Continuous
 62
     7
100
AcDbPolyline
 90
        2
 70
     0
 43
0.5
 10
436.576690393423
 20
192.842055239899
 42
0.4142135623731
 10
438.576690393423
 20
190.842055239899
  0
LWPOLYLINE
  5
340
330
1F
100
AcDbEntity
  8
Sichtbare_Kanten_TC_020513_DIN_
  6
Continuous
 62
     7
100
AcDbPolyline
 90
        2
 70
     0
 43
0.5
 10
438.576690393423
 20
232.342055239899
 42
0.4142135623731
 10
436.576690393423
 20
230.342055239899
  0
LWPOLYLINE
  5
341
330
1F
100
AcDbEntity
  8
Sichtbare_Kanten_TC_020513_DIN_
  6
Continuous
 62
     7
100
AcDbPolyline
 90
        2
 70
     0
 43
0.5
 10
505.076690393419
 20
152.842055239899
 42
0.4142135623731
 10
504.076690393419
 20
153.842055239899
  0
LWPOLYLINE
  5
342
330
1F
100
AcDbEntity
  8
Sichtbare_Kanten_TC_020513_DIN_
  6
Continuous
 62
     7
100
AcDbPolyline
 90
        2
 70
     0
 43
0.5
 10
462.576690393419
 20
153.842055239899
 42
0.4142135623731
 10
461.576690393419
 20
152.842055239899
  0
LWPOLYLINE
  5
343
330
1F
100
AcDbEntity
  8
Sichtbare_Kanten_TC_020513_DIN_
  6
Continuous
 62
     7
100
AcDbPolyline
 90
        2
 70
     0
 43
0.5
 10
316.683137379857
 20
180.842055239899
 42
0.4142135623731
 10
316.183137379857
 20
181.342055239899
  0
LWPOLYLINE
  5
344
330
1F
100
AcDbEntity
  8
Sichtbare_Kanten_TC_020513_DIN_
  6
Continuous
 62
     7
100
AcDbPolyline
 90
        2
 70
     0
 43
0.5
 10
287.183137379857
 20
181.342055239899
 42
0.4142135623731
 10
286.683137379857
 20
180.842055239899
  0
LWPOLYLINE
  5
345
330
1F
100
AcDbEntity
  8
Sichtbare_Kanten_TC_020513_DIN_
  6
Continuous
 62
     7
100
AcDbPolyline
 90
        2
 70
     0
 43
0.5
 10
240.933137379857
 20
153.842055239899
 42
0.4142135623731
 10
241.933137379857
 20
154.842055239899
  0
LWPOLYLINE
  5
346
330
1F
100
AcDbEntity
  8
Sichtbare_Kanten_TC_020513_DIN_
  6
Continuous
 62
     7
100
AcDbPolyline
 90
        2
 70
     0
 43
0.5
 10
361.433137379857
 20
154.842055239899
 42
0.4142135623731
 10
362.433137379857
 20
153.842055239899
  0
LWPOLYLINE
  5
347
330
1F
100
AcDbEntity
  8
Sichtbare_Kanten_TC_020513_DIN_
  6
Continuous
 62
     7
100
AcDbPolyline
 90
        2
 70
     0
 43
0.5
 10
371.933137379857
 20
152.842055239899
 42
0.4142135623731
 10
370.933137379857
 20
153.842055239899
  0
LWPOLYLINE
  5
348
330
1F
100
AcDbEntity
  8
Sichtbare_Kanten_TC_020513_DIN_
  6
Continuous
 62
     7
100
AcDbPolyline
 90
        2
 70
     0
 43
0.5
 10
232.433137379857
 20
153.842055239899
 42
0.4142135623731
 10
231.433137379857
 20
152.842055239899
  0
LWPOLYLINE
  5
349
330
1F
100
AcDbEntity
  8
Sichtbare_Kanten_TC_020513_DIN_
  6
Continuous
 62
     7
100
AcDbPolyline
 90
        2
 70
     0
 43
0.5
 10
246.683137379857
 20
231.092055239899
 42
0.4142135623731
 10
244.183137379857
 20
228.592055239899
  0
LWPOLYLINE
  5
34A
330
1F
100
AcDbEntity
  8
Sichtbare_Kanten_TC_020513_DIN_
  6
Continuous
 62
     7
100
AcDbPolyline
 90
        2
 70
     0
 43
0.5
 10
244.183137379857
 20
194.592055239899
 42
0.4142135623731
 10
246.683137379857
 20
192.092055239899
  0
LWPOLYLINE
  5
34B
330
1F
100
AcDbEntity
  8
Sichtbare_Kanten_TC_020513_DIN_
  6
Continuous
 62
     7
100
AcDbPolyline
 90
        2
 70
     0
 43
0.5
 10
356.683137379857
 20
192.092055239899
 42
0.4142135623731
 10
359.183137379857
 20
194.592055239899
  0
LWPOLYLINE
  5
34C
330
1F
100
AcDbEntity
  8
Sichtbare_Kanten_TC_020513_DIN_
  6
Continuous
 62
     7
100
AcDbPolyline
 90
        2
 70
     0
 43
0.5
 10
359.183137379857
 20
228.592055239899
 42
0.4142135623731
 10
356.683137379857
 20
231.092055239899
  0
LWPOLYLINE
  5
34D
330
1F
100
AcDbEntity
  8
Sichtbare_Kanten_TC_020513_DIN_
  6
Continuous
 62
     7
100
AcDbPolyline
 90
        2
 70
     0
 43
0.5
 10
241.683137379857
 20
195.342055239899
 42
0.4142135623731
 10
247.433137379857
 20
189.592055239899
  0
LWPOLYLINE
  5
34E
330
1F
100
AcDbEntity
  8
Sichtbare_Kanten_TC_020513_DIN_
  6
Continuous
 62
     7
100
AcDbPolyline
 90
        2
 70
     0
 43
0.5
 10
247.433137379857
 20
233.592055239899
 42
0.4142135623731
 10
241.683137379857
 20
227.842055239899
  0
LWPOLYLINE
  5
34F
330
1F
100
AcDbEntity
  8
Sichtbare_Kanten_TC_020513_DIN_
  6
Continuous
 62
     7
100
AcDbPolyline
 90
        2
 70
     0
 43
0.5
 10
361.683137379857
 20
227.842055239899
 42
0.4142135623731
 10
355.933137379857
 20
233.592055239899
  0
LWPOLYLINE
  5
350
330
1F
100
AcDbEntity
  8
Sichtbare_Kanten_TC_020513_DIN_
  6
Continuous
 62
     7
100
AcDbPolyline
 90
        2
 70
     0
 43
0.5
 10
355.933137379857
 20
189.592055239899
 42
0.4142135623731
 10
361.683137379857
 20
195.342055239899
  0
LWPOLYLINE
  5
351
330
1F
100
AcDbEntity
  8
Sichtbare_Kanten_TC_020513_DIN_
  6
Continuous
 62
     7
100
AcDbPolyline
 90
        2
 70
     0
 43
0.5
 10
240.683137379857
 20
194.592055239899
 42
0.4142135623731
 10
246.683137379857
 20
188.592055239899
  0
LWPOLYLINE
  5
352
330
1F
100
AcDbEntity
  8
Sichtbare_Kanten_TC_020513_DIN_
  6
Continuous
 62
     7
100
AcDbPolyline
 90
        2
 70
     0
 43
0.5
 10
356.683137379857
 20
188.592055239899
 42
0.4142135623731
 10
362.683137379857
 20
194.592055239899
  0
LWPOLYLINE
  5
353
330
1F
100
AcDbEntity
  8
Sichtbare_Kanten_TC_020513_DIN_
  6
Continuous
 62
     7
100
AcDbPolyline
 90
        2
 70
     0
 43
0.5
 10
362.683137379857
 20
228.592055239899
 42
0.4142135623731
 10
356.683137379857
 20
234.592055239899
  0
LWPOLYLINE
  5
354
330
1F
100
AcDbEntity
  8
Sichtbare_Kanten_TC_020513_DIN_
  6
Continuous
 62
     7
100
AcDbPolyline
 90
        2
 70
     0
 43
0.5
 10
246.683137379857
 20
234.592055239899
 42
0.4142135623731
 10
240.683137379857
 20
228.592055239899
  0
LWPOLYLINE
  5
355
330
1F
100
AcDbEntity
  8
Sichtbare_Kanten_TC_020513_DIN_
  6
Continuous
 62
     7
100
AcDbPolyline
 90
        2
 70
     0
 43
0.5
 10
302.808137379857
 20
156.381237731997
 42
1.0
 10
303.558137379857
 20
156.381237731997
  0
LWPOLYLINE
  5
356
330
1F
100
AcDbEntity
  8
Sichtbare_Kanten_TC_020513_DIN_
  6
Continuous
 62
     7
100
AcDbPolyline
 90
        2
 70
     0
 43
0.5
 10
303.558137379857
 20
163.3028727478
 42
0.72714551713745
 10
302.879408520366
 20
163.52281314862
  0
LWPOLYLINE
  5
357
330
1F
100
AcDbEntity
  8
Sichtbare_Kanten_TC_020513_DIN_
  6
Continuous
 62
     7
100
AcDbPolyline
 90
        2
 70
     0
 43
0.5
 10
300.486866239347
 20
163.52281314862
 42
0.7271455171369
 10
299.808137379857
 20
163.3028727478
  0
LWPOLYLINE
  5
358
330
1F
100
AcDbEntity
  8
Sichtbare_Kanten_TC_020513_DIN_
  6
Continuous
 62
     7
100
AcDbPolyline
 90
        2
 70
     0
 43
0.5
 10
299.808137379857
 20
158.155276193536
 42
1.0
 10
300.558137379857
 20
158.155276193536
  0
LWPOLYLINE
  5
359
330
1F
100
AcDbEntity
  8
Sichtbare_Kanten_TC_020513_DIN_
  6
Continuous
 62
     7
100
AcDbPolyline
 90
        2
 70
     0
 43
0.5
 10
298.233137379857
 20
157.289891578151
 42
0.26803505952175
 10
298.420741459798
 20
156.965071983383
  0
LWPOLYLINE
  5
35A
330
1F
100
AcDbEntity
  8
Sichtbare_Kanten_TC_020513_DIN_
  6
Continuous
 62
     7
100
AcDbPolyline
 90
        2
 70
     0
 43
0.5
 10
301.495741459798
 20
155.191033521844
 42
1.00000000000181
 10
301.870533299915
 20
155.840672711381
  0
LWPOLYLINE
  5
35B
330
1F
100
AcDbEntity
  8
Sichtbare_Kanten_TC_020513_DIN_
  6
Continuous
 62
     7
100
AcDbPolyline
 90
        2
 70
     0
 43
0.5
 10
298.983137379857
 20
162.394218901647
 42
1.0
 10
298.233137379857
 20
162.394218901647
  0
LWPOLYLINE
  5
35C
330
1F
100
AcDbEntity
  8
Sichtbare_Kanten_TC_020513_DIN_
  6
Continuous
 62
     7
100
AcDbPolyline
 90
        2
 70
     0
 43
0.5
 10
296.733137379857
 20
158.155276193536
 42
1.0
 10
297.483137379857
 20
158.155276193536
  0
LWPOLYLINE
  5
35D
330
1F
100
AcDbEntity
  8
Sichtbare_Kanten_TC_020513_DIN_
  6
Continuous
 62
     7
100
AcDbPolyline
 90
        2
 70
     0
 43
0.5
 10
297.483137379857
 20
161.528834286262
 42
1.0
 10
296.733137379857
 20
161.528834286262
  0
LWPOLYLINE
  5
35E
330
1F
100
AcDbEntity
  8
Sichtbare_Kanten_TC_020513_DIN_
  6
Continuous
 62
     7
100
AcDbPolyline
 90
        2
 70
     0
 43
0.5
 10
304.308137379857
 20
157.246622347382
 42
0.57724345630739
 10
304.870533299915
 20
156.921802752614
  0
LWPOLYLINE
  5
35F
330
1F
100
AcDbEntity
  8
Sichtbare_Kanten_TC_020513_DIN_
  6
Continuous
 62
     7
100
AcDbPolyline
 90
        2
 70
     0
 43
0.5
 10
307.120533299915
 20
158.21987967569
 42
1.00000000000181
 10
306.745741459798
 20
158.869518865227
  0
LWPOLYLINE
  5
360
330
1F
100
AcDbEntity
  8
Sichtbare_Kanten_TC_020513_DIN_
  6
Continuous
 62
     7
100
AcDbPolyline
 90
        2
 70
     0
 43
0.5
 10
306.933137379857
 20
159.467055239899
 42
1.0
 10
306.933137379857
 20
160.217055239899
  0
LWPOLYLINE
  5
361
330
1F
100
AcDbEntity
  8
Sichtbare_Kanten_TC_020513_DIN_
  6
Continuous
 62
     7
100
AcDbPolyline
 90
        2
 70
     0
 43
0.5
 10
306.745741459798
 20
160.814591614571
 42
1.00000000000112
 10
307.120533299915
 20
161.464230804107
  0
LWPOLYLINE
  5
362
330
1F
100
AcDbEntity
  8
Sichtbare_Kanten_TC_020513_DIN_
  6
Continuous
 62
     7
100
AcDbPolyline
 90
        2
 70
     0
 43
0.5
 10
304.870533299915
 20
162.762307727184
 42
0.57724345630739
 10
304.308137379857
 20
162.437488132416
  0
LWPOLYLINE
  5
363
330
1F
100
AcDbEntity
  8
Skizziergeometrie_TC_020513_DIN_
  6
Continuous
 62
     7
100
AcDbPolyline
 90
        3
 70
     0
 43
0.5
 10
121.51002310452
 20
299.461804779764
 42
1.0
 10
126.01002310452
 20
299.461804779764
 42
1.0
 10
121.51002310452
 20
299.461804779764
  0
LWPOLYLINE
  5
364
330
1F
100
AcDbEntity
  8
Skizziergeometrie_TC_020513_DIN_
  6
Continuous
 62
     7
100
AcDbPolyline
 90
        3
 70
     0
 43
0.5
 10
121.51002310452
 20
169.461804779764
 42
1.0
 10
126.01002310452
 20
169.461804779764
 42
1.0
 10
121.51002310452
 20
169.461804779764
  0
LWPOLYLINE
  5
365
330
1F
100
AcDbEntity
  8
Skizziergeometrie_TC_020513_DIN_
  6
Continuous
 62
     7
100
AcDbPolyline
 90
        3
 70
     0
 43
0.5
 10
89.5100231045204
 20
169.461804779764
 42
1.0
 10
94.0100231045204
 20
169.461804779764
 42
1.0
 10
89.5100231045204
 20
169.461804779764
  0
LWPOLYLINE
  5
366
330
1F
100
AcDbEntity
  8
Skizziergeometrie_TC_020513_DIN_
  6
Continuous
 62
     7
100
AcDbPolyline
 90
        3
 70
     0
 43
0.5
 10
89.5100231045204
 20
299.461804779764
 42
1.0
 10
94.0100231045204
 20
299.461804779764
 42
1.0
 10
89.5100231045204
 20
299.461804779764
  0
LWPOLYLINE
  5
367
330
1F
100
AcDbEntity
  8
Sichtbare_Kanten_TC_020513_DIN_
  6
Continuous
 62
     7
100
AcDbPolyline
 90
        3
 70
     0
 43
0.5
 10
336.683137379857
 20
167.342055239899
 42
1.0
 10
341.183137379857
 20
167.342055239899
 42
1.0
 10
336.683137379857
 20
167.342055239899
  0
LWPOLYLINE
  5
368
330
1F
100
AcDbEntity
  8
Sichtbare_Kanten_TC_020513_DIN_
  6
Continuous
 62
     7
100
AcDbPolyline
 90
        3
 70
     0
 43
0.5
 10
336.433137379857
 20
167.342055239899
 42
1.0
 10
341.433137379857
 20
167.342055239899
 42
1.0
 10
336.433137379857
 20
167.342055239899
  0
LWPOLYLINE
  5
369
330
1F
100
AcDbEntity
  8
Sichtbare_Kanten_TC_020513_DIN_
  6
Continuous
 62
     7
100
AcDbPolyline
 90
        3
 70
     0
 43
0.5
 10
334.933137379857
 20
167.342055239899
 42
1.0
 10
342.933137379857
 20
167.342055239899
 42
1.0
 10
334.933137379857
 20
167.342055239899
  0
LWPOLYLINE
  5
36A
330
1F
100
AcDbEntity
  8
Sichtbare_Kanten_TC_020513_DIN_
  6
Continuous
 62
     7
100
AcDbPolyline
 90
        3
 70
     0
 43
0.5
 10
262.183137379857
 20
167.342055239899
 42
1.0
 10
266.683137379857
 20
167.342055239899
 42
1.0
 10
262.183137379857
 20
167.342055239899
  0
LWPOLYLINE
  5
36B
330
1F
100
AcDbEntity
  8
Sichtbare_Kanten_TC_020513_DIN_
  6
Continuous
 62
     7
100
AcDbPolyline
 90
        3
 70
     0
 43
0.5
 10
261.933137379857
 20
167.342055239899
 42
1.0
 10
266.933137379857
 20
167.342055239899
 42
1.0
 10
261.933137379857
 20
167.342055239899
  0
LWPOLYLINE
  5
36C
330
1F
100
AcDbEntity
  8
Sichtbare_Kanten_TC_020513_DIN_
  6
Continuous
 62
     7
100
AcDbPolyline
 90
        3
 70
     0
 43
0.5
 10
260.433137379857
 20
167.342055239899
 42
1.0
 10
268.433137379857
 20
167.342055239899
 42
1.0
 10
260.433137379857
 20
167.342055239899
  0
TEXT
  5
36E
330
1F
100
AcDbEntity
  8
Symbole_ISO_
 62
     7
100
AcDbText
 10
276.0
 20
38.4999999403953
 30
0.0
 40
8.00000011920929
  1
CMI 16 CP
 41
0.74999995529652
  7
CONVERTER_14
100
AcDbText
  0
TEXT
  5
370
330
1F
100
AcDbEntity
  8
Symbole_ISO_
 62
     7
100
AcDbText
 10
502.610914283349
 20
24.9999999999999
 30
0.0
 40
10.0
  1
1:2
 41
0.56249998509884
  7
CONVERTER_15
100
AcDbText
  0
TEXT
  5
372
330
1F
100
AcDbEntity
  8
Symbole_ISO_
 62
     7
100
AcDbText
 10
276.0
 20
23.4999999403953
 30
0.0
 40
8.00000011920929
  1
bulkhead h. with pegs and cover
 41
0.625
  7
CONVERTER_16
100
AcDbText
  0
MTEXT
  5
373
330
1F
100
AcDbEntity
  8
Symbole_TC_020513_DIN_
 62
     7
100
AcDbMText
 10
59.001468160494
 20
329.516577079063
 30
0.0
 40
6.99999988079071
 41
0.0
 71
     1
 72
     1
  1
panel\Pcut\Pout
  7
CONVERTER_16
 73
     1
 44
1.0
  0
DIMENSION
  5
37E
330
1F
100
AcDbEntity
  8
Bemaßungen_TC_020513_DIN_
100
AcDbDimension
  2
*D4
 10
155.7600231045205
 20
169.4618047797641
 30
0.0
 11
147.6689179210246
 21
235.680263169942
 31
0.0
 70
    32
  1
130
 71
     5
 42
-1.0
 53
90.0
  3
ME10_DIM_10
100
AcDbAlignedDimension
 13
123.76002310452
 23
299.461804779764
 33
0.0
 14
123.76002310452
 24
169.461804779764
 34
0.0
 50
90.0
100
AcDbRotatedDimension
  0
DIMENSION
  5
389
330
1F
100
AcDbEntity
  8
Bemaßungen_TC_020513_DIN_
100
AcDbDimension
  2
*D5
 10
123.76002310452
 20
319.4618152153664
 30
0.0
 11
108.524579721164
 21
327.5529099632605
 31
0.0
 70
    32
  1
32
 71
     5
 42
-1.0
 53
0.00013888888889
  3
ME10_DIM_11
100
AcDbAlignedDimension
 13
91.7600231045204
 23
299.461804779764
 33
0.0
 14
123.76002310452
 24
299.461804779764
 34
0.0
100
AcDbRotatedDimension
  0
DIMENSION
  5
394
330
1F
100
AcDbEntity
  8
Bemaßungen_TC_020513_DIN_
100
AcDbDimension
  2
*D6
 10
68.59833156223189
 20
178.4618047797639
 30
0.0
 11
61.24334455999883
 21
236.344958311089
 31
0.0
 70
    32
  1
112
 71
     5
 42
-1.0
 53
90.0
  3
ME10_DIM_12
100
AcDbAlignedDimension
 13
89.2600231045204
 23
290.461804779764
 33
0.0
 14
89.2600231045204
 24
178.461804779764
 34
0.0
 50
90.0
100
AcDbRotatedDimension
  0
DIMENSION
  5
39F
330
1F
100
AcDbEntity
  8
Bemaßungen_TC_020513_DIN_
100
AcDbDimension
  2
*D7
 10
126.26002310452
 20
135.123506757655
 30
0.0
 11
108.488767988559
 21
142.5529099632605
 31
0.0
 70
    32
  1
37
 71
     5
 42
-1.0
 53
0.00013888888889
  3
ME10_DIM_13
100
AcDbAlignedDimension
 13
89.2600231045204
 23
178.461804779764
 33
0.0
 14
126.26002310452
 24
178.461804779764
 34
0.0
100
AcDbRotatedDimension
  0
DIMENSION
  5
3AA
330
1F
100
AcDbEntity
  8
Bemaßungen_TC_020513_DIN_
100
AcDbDimension
  2
*D8
 10
436.576690393422
 20
260.5920656755008
 30
0.0
 11
474.805435277463
 21
268.6149102689827
 31
0.0
 70
    32
  1
75
 71
     5
 42
-1.0
 53
0.00013888888889
  3
ME10_DIM_14
100
AcDbAlignedDimension
 13
511.576690393428
 23
169.592055239899
 33
0.0
 14
436.576690393422
 24
228.592055239899
 34
0.0
100
AcDbRotatedDimension
  0
DIMENSION
  5
3B5
330
1F
100
AcDbEntity
  8
Bemaßungen_TC_020513_DIN_
100
AcDbDimension
  2
*D9
 10
557.0766903934177
 20
147.842055239899
 30
0.0
 11
548.9903601076026
 21
163.001564107566
 31
0.0
 70
    32
  1
29
 71
     5
 42
-1.0
 53
90.0
  3
ME10_DIM_15
100
AcDbAlignedDimension
 13
499.326690393421
 23
176.842055239899
 33
0.0
 14
501.076690393418
 24
147.842055239899
 34
0.0
 50
90.0
100
AcDbRotatedDimension
  0
DIMENSION
  5
3C2
330
1F
100
AcDbEntity
  8
Bemaßungen_TC_020513_DIN_
100
AcDbDimension
  2
*D10
 10
533.0766903934176
 20
147.842055239899
 30
0.0
 11
524.9903601076026
 21
134.489954284919
 31
0.0
 70
    32
  1
6
 71
     5
 42
-1.0
 53
90.0
  3
ME10_DIM_16
100
AcDbAlignedDimension
 13
501.076690393418
 23
153.842055239899
 33
0.0
 14
501.076690393418
 24
147.842055239899
 34
0.0
 50
90.0
100
AcDbRotatedDimension
  0
DIMENSION
  5
3CD
330
1F
100
AcDbEntity
  8
Bemaßungen_TC_020513_DIN_
100
AcDbDimension
  2
*D11
 10
506.076690393419
 20
115.8420761111149
 30
0.0
 11
485.548163790418
 21
125.6700591494096
 31
0.0
 70
    32
  1
45,5
 71
     5
 42
-1.0
 53
0.00013888888889
  3
ME10_DIM_17
100
AcDbAlignedDimension
 13
460.576690393419
 23
147.842055239899
 33
0.0
 14
506.076690393419
 24
147.842055239899
 34
0.0
100
AcDbRotatedDimension
  0
DIMENSION
  5
3D8
330
1F
100
AcDbEntity
  8
Bemaßungen_TC_020513_DIN_
100
AcDbDimension
  2
*D12
 10
372.933137379857
 20
115.8420813289224
 30
0.0
 11
304.525633969215
 21
125.7161214708179
 31
0.0
 70
    32
  1
142,5
 71
     5
 42
-1.0
 53
0.00013888888889
  3
ME10_DIM_18
100
AcDbAlignedDimension
 13
230.433137379857
 23
147.842055239899
 33
0.0
 14
372.933137379857
 24
147.842055239899
 34
0.0
100
AcDbRotatedDimension
  0
ENDSEC
  0
SECTION
  2
OBJECTS
  0
DICTIONARY
  5
C
330
0
100
AcDbDictionary
281
     1
  3
ACAD_GROUP
350
D
  3
ACAD_LAYOUT
350
1A
  3
ACAD_MLEADERSTYLE
350
3DA
  3
ACAD_MLINESTYLE
350
17
  3
ACAD_PLOTSETTINGS
350
19
  3
ACAD_PLOTSTYLENAME
350
E
  3
ACAD_TABLESTYLE
350
3D9
  3
ACAD_VISUALSTYLE
350
2A
  0
DICTIONARY
  5
D
102
{ACAD_REACTORS
330
C
102
}
330
C
100
AcDbDictionary
281
     1
  0
DICTIONARY
  5
1A
102
{ACAD_REACTORS
330
C
102
}
330
C
100
AcDbDictionary
281
     1
  3
Layout1
350
1E
  3
Layout2
350
26
  3
Model
350
22
  0
DICTIONARY
  5
3DA
102
{ACAD_REACTORS
330
C
102
}
330
C
100
AcDbDictionary
281
     1
  0
DICTIONARY
  5
17
102
{ACAD_REACTORS
330
C
102
}
330
C
100
AcDbDictionary
281
     1
  3
Standard
350
18
  0
DICTIONARY
  5
19
102
{ACAD_REACTORS
330
C
102
}
330
C
100
AcDbDictionary
281
     1
  0
ACDBDICTIONARYWDFLT
  5
E
102
{ACAD_REACTORS
330
C
102
}
330
C
100
AcDbDictionary
281
     1
  3
Normal
350
F
100
AcDbDictionaryWithDefault
340
F
  0
DICTIONARY
  5
3D9
102
{ACAD_REACTORS
330
C
102
}
330
C
100
AcDbDictionary
281
     1
  0
DICTIONARY
  5
2A
102
{ACAD_REACTORS
330
C
102
}
330
C
100
AcDbDictionary
281
     1
  3
2dWireframe
350
2F
  3
3D Hidden
350
31
  3
3dWireframe
350
30
  3
Basic
350
32
  3
Brighten
350
36
  3
ColorChange
350
3A
  3
Conceptual
350
34
  3
Dim
350
35
  3
Facepattern
350
39
  3
Flat
350
2B
  3
FlatWithEdges
350
2C
  3
Gouraud
350
2D
  3
GouraudWithEdges
350
2E
  3
Linepattern
350
38
  3
Realistic
350
33
  3
Thicken
350
37
  0
LAYOUT
  5
1E
102
{ACAD_REACTORS
330
1A
102
}
330
1A
100
AcDbPlotSettings
  1

  2
none_device
  4

  6

 40
0.0
 41
0.0
 42
0.0
 43
0.0
 44
0.0
 45
0.0
 46
0.0
 47
0.0
 48
0.0
 49
0.0
140
0.0
141
0.0
142
1.0
143
1.0
 70
   688
 72
     0
 73
     0
 74
     5
  7

 75
    16
147
1.0
148
0.0
149
0.0
100
AcDbLayout
  1
Layout1
 70
     1
 71
     1
 10
0.0
 20
0.0
 11
12.0
 21
9.0
 12
0.0
 22
0.0
 32
0.0
 14
1.00000000000000E+20
 24
1.00000000000000E+20
 34
1.00000000000000E+20
 15
-1.00000000000000E+20
 25
-1.00000000000000E+20
 35
-1.00000000000000E+20
146
0.0
 13
0.0
 23
0.0
 33
0.0
 16
1.0
 26
0.0
 36
0.0
 17
0.0
 27
1.0
 37
0.0
 76
     0
330
1B
  0
LAYOUT
  5
26
102
{ACAD_REACTORS
330
1A
102
}
330
1A
100
AcDbPlotSettings
  1

  2
none_device
  4

  6

 40
0.0
 41
0.0
 42
0.0
 43
0.0
 44
0.0
 45
0.0
 46
0.0
 47
0.0
 48
0.0
 49
0.0
140
0.0
141
0.0
142
1.0
143
1.0
 70
   688
 72
     0
 73
     0
 74
     5
  7

 75
    16
147
1.0
148
0.0
149
0.0
100
AcDbLayout
  1
Layout2
 70
     1
 71
     2
 10
0.0
 20
0.0
 11
0.0
 21
0.0
 12
0.0
 22
0.0
 32
0.0
 14
0.0
 24
0.0
 34
0.0
 15
0.0
 25
0.0
 35
0.0
146
0.0
 13
0.0
 23
0.0
 33
0.0
 16
1.0
 26
0.0
 36
0.0
 17
0.0
 27
1.0
 37
0.0
 76
     0
330
23
  0
LAYOUT
  5
22
102
{ACAD_REACTORS
330
1A
102
}
330
1A
100
AcDbPlotSettings
  1

  2
none_device
  4

  6

 40
0.0
 41
0.0
 42
0.0
 43
0.0
 44
0.0
 45
0.0
 46
0.0
 47
0.0
 48
0.0
 49
0.0
140
0.0
141
0.0
142
1.0
143
1.0
 70
  1712
 72
     0
 73
     0
 74
     0
  7

 75
     0
147
1.0
148
0.0
149
0.0
100
AcDbLayout
  1
Model
 70
     1
 71
     0
 10
0.0
 20
0.0
 11
12.0
 21
9.0
 12
0.0
 22
0.0
 32
0.0
 14
19.49999999999996
 24
19.4999999999999
 34
0.0
 15
574.5
 25
420.5
 35
0.0
146
0.0
 13
0.0
 23
0.0
 33
0.0
 16
1.0
 26
0.0
 36
0.0
 17
0.0
 27
1.0
 37
0.0
 76
     0
330
1F
331
29
  0
MLINESTYLE
  5
18
102
{ACAD_REACTORS
330
17
102
}
330
17
100
AcDbMlineStyle
  2
Standard
 70
     0
  3

 62
   256
 51
90.0
 52
90.0
 71
     2
 49
0.5
 62
   256
  6
BYLAYER
 49
-0.5
 62
   256
  6
BYLAYER
  0
ACDBPLACEHOLDER
  5
F
102
{ACAD_REACTORS
330
E
102
}
330
E
  0
VISUALSTYLE
  5
2F
102
{ACAD_REACTORS
330
2A
102
}
330
2A
100
AcDbVisualStyle
  2
2dWireframe
 70
     4
 71
     0
 72
     2
 73
     0
 90
        0
 40
-0.6
 41
-30.0
 62
     5
 63
     7
 74
     1
 91
        4
 64
     7
 65
   257
 75
     1
175
     1
 42
1.0
 92
        0
 66
   257
 43
1.0
 76
     1
 77
     6
 78
     2
 67
     7
 79
     5
170
     0
171
     0
290
     0
174
     0
 93
        1
 44
0.0
173
     0
291
     0
 45
0.0
1001
ACAD
1000
AcDbSavedByObjectVersion
1070
     0
  0
VISUALSTYLE
  5
31
102
{ACAD_REACTORS
330
2A
102
}
330
2A
100
AcDbVisualStyle
  2
3D Hidden
 70
     6
 71
     1
 72
     2
 73
     2
 90
        0
 40
-0.6
 41
-30.0
 62
     5
 63
     7
 74
     2
 91
        2
 64
     7
 65
   257
 75
     2
175
     1
 42
40.0
 92
        0
 66
   257
 43
1.0
 76
     1
 77
     6
 78
     2
 67
     7
 79
     3
170
     0
171
     0
290
     0
174
     0
 93
        1
 44
0.0
173
     0
291
     0
 45
0.0
1001
ACAD
1000
AcDbSavedByObjectVersion
1070
     0
  0
VISUALSTYLE
  5
30
102
{ACAD_REACTORS
330
2A
102
}
330
2A
100
AcDbVisualStyle
  2
3dWireframe
 70
     5
 71
     0
 72
     2
 73
     0
 90
        0
 40
-0.6
 41
-30.0
 62
     5
 63
     7
 74
     1
 91
        4
 64
     7
 65
   257
 75
     1
175
     1
 42
1.0
 92
        0
 66
   257
 43
1.0
 76
     1
 77
     6
 78
     2
 67
     7
 79
     5
170
     0
171
     0
290
     0
174
     0
 93
        1
 44
0.0
173
     0
291
     0
 45
0.0
1001
ACAD
1000
AcDbSavedByObjectVersion
1070
     0
  0
VISUALSTYLE
  5
32
102
{ACAD_REACTORS
330
2A
102
}
330
2A
100
AcDbVisualStyle
  2
Basic
 70
     7
 71
     1
 72
     0
 73
     1
 90
        0
 40
-0.6
 41
-30.0
 62
     5
 63
     7
 74
     0
 91
        4
 64
     7
 65
   257
 75
     1
175
     1
 42
1.0
 92
        8
 66
     7
 43
1.0
 76
     1
 77
     6
 78
     2
 67
     7
 79
     5
170
     0
171
     0
290
     0
174
     0
 93
        1
 44
0.0
173
     0
291
     1
 45
0.0
1001
ACAD
1000
AcDbSavedByObjectVersion
1070
     0
  0
VISUALSTYLE
  5
36
102
{ACAD_REACTORS
330
2A
102
}
330
2A
100
AcDbVisualStyle
  2
Brighten
 70
    12
 71
     2
 72
     2
 73
     0
 90
        0
 40
-0.6
 41
-30.0
 62
     5
 63
     7
 74
     1
 91
        4
 64
     7
 65
   257
 75
     1
175
     1
 42
1.0
 92
        8
 66
     7
 43
1.0
 76
     1
 77
     6
 78
     2
 67
     7
 79
     5
170
     0
171
     0
290
     0
174
     0
 93
        1
 44
50.0
173
     0
291
     1
 45
0.0
1001
ACAD
1000
AcDbSavedByObjectVersion
1070
     0
  0
VISUALSTYLE
  5
3A
102
{ACAD_REACTORS
330
2A
102
}
330
2A
100
AcDbVisualStyle
  2
ColorChange
 70
    16
 71
     2
 72
     2
 73
     3
 90
        0
 40
-0.6
 41
-30.0
 62
     5
 63
     8
 74
     1
 91
        4
 64
     7
 65
   257
 75
     1
175
     1
 42
1.0
 92
        8
 66
     8
 43
1.0
 76
     1
 77
     6
 78
     2
 67
     7
 79
     5
170
     0
171
     0
290
     0
174
     0
 93
        1
 44
0.0
173
     0
291
     1
 45
0.0
1001
ACAD
1000
AcDbSavedByObjectVersion
1070
     0
  0
VISUALSTYLE
  5
34
102
{ACAD_REACTORS
330
2A
102
}
330
2A
100
AcDbVisualStyle
  2
Conceptual
 70
     9
 71
     3
 72
     2
 73
     0
 90
        0
 40
-0.6
 41
-30.0
 62
     5
 63
     7
 74
     2
 91
        2
 64
     7
 65
   257
 75
     1
175
     1
 42
40.0
 92
        8
 66
     7
 43
1.0
 76
     1
 77
     6
 78
     2
 67
     7
 79
     3
170
     0
171
     0
290
     0
174
     0
 93
        1
 44
0.0
173
     0
291
     0
 45
0.0
1001
ACAD
1000
AcDbSavedByObjectVersion
1070
     0
  0
VISUALSTYLE
  5
35
102
{ACAD_REACTORS
330
2A
102
}
330
2A
100
AcDbVisualStyle
  2
Dim
 70
    11
 71
     2
 72
     2
 73
     0
 90
        0
 40
-0.6
 41
-30.0
 62
     5
 63
     7
 74
     1
 91
        4
 64
     7
 65
   257
 75
     1
175
     1
 42
1.0
 92
        8
 66
     7
 43
1.0
 76
     1
 77
     6
 78
     2
 67
     7
 79
     5
170
     0
171
     0
290
     0
174
     0
 93
        1
 44
-50.0
173
     0
291
     1
 45
0.0
1001
ACAD
1000
AcDbSavedByObjectVersion
1070
     0
  0
VISUALSTYLE
  5
39
102
{ACAD_REACTORS
330
2A
102
}
330
2A
100
AcDbVisualStyle
  2
Facepattern
 70
    15
 71
     2
 72
     2
 73
     0
 90
        0
 40
-0.6
 41
-30.0
 62
     5
 63
     7
 74
     1
 91
        4
 64
     7
 65
   257
 75
     1
175
     1
 42
1.0
 92
        8
 66
     7
 43
1.0
 76
     1
 77
     6
 78
     2
 67
     7
 79
     5
170
     0
171
     0
290
     0
174
     0
 93
        1
 44
0.0
173
     0
291
     1
 45
0.0
1001
ACAD
1000
AcDbSavedByObjectVersion
1070
     0
  0
VISUALSTYLE
  5
2B
102
{ACAD_REACTORS
330
2A
102
}
330
2A
100
AcDbVisualStyle
  2
Flat
 70
     0
 71
     2
 72
     1
 73
     1
 90
        2
 40
-0.6
 41
30.0
 62
     5
 63
     7
 74
     0
 91
        4
 64
     7
 65
   257
 75
     1
175
     1
 42
1.0
 92
        8
 66
     7
 43
1.0
 76
     1
 77
     6
 78
     2
 67
     7
 79
     5
170
     0
171
     0
290
     0
174
     0
 93
       13
 44
0.0
173
     0
291
     1
 45
0.0
1001
ACAD
1000
AcDbSavedByObjectVersion
1070
     0
  0
VISUALSTYLE
  5
2C
102
{ACAD_REACTORS
330
2A
102
}
330
2A
100
AcDbVisualStyle
  2
FlatWithEdges
 70
     1
 71
     2
 72
     1
 73
     1
 90
        2
 40
-0.6
 41
30.0
 62
     5
 63
     7
 74
     1
 91
        4
 64
     7
 65
   257
 75
     1
175
     1
 42
1.0
 92
        0
 66
   257
 43
1.0
 76
     1
 77
     6
 78
     2
 67
     7
 79
     5
170
     0
171
     0
290
     0
174
     0
 93
       13
 44
0.0
173
     0
291
     1
 45
0.0
1001
ACAD
1000
AcDbSavedByObjectVersion
1070
     0
  0
VISUALSTYLE
  5
2D
102
{ACAD_REACTORS
330
2A
102
}
330
2A
100
AcDbVisualStyle
  2
Gouraud
 70
     2
 71
     2
 72
     2
 73
     1
 90
        2
 40
-0.6
 41
30.0
 62
     5
 63
     7
 74
     0
 91
        4
 64
     7
 65
   257
 75
     1
175
     1
 42
1.0
 92
        0
 66
     7
 43
1.0
 76
     1
 77
     6
 78
     2
 67
     7
 79
     5
170
     0
171
     0
290
     0
174
     0
 93
       13
 44
0.0
173
     0
291
     1
 45
0.0
1001
ACAD
1000
AcDbSavedByObjectVersion
1070
     0
  0
VISUALSTYLE
  5
2E
102
{ACAD_REACTORS
330
2A
102
}
330
2A
100
AcDbVisualStyle
  2
GouraudWithEdges
 70
     3
 71
     2
 72
     2
 73
     1
 90
        2
 40
-0.6
 41
30.0
 62
     5
 63
     7
 74
     1
 91
        4
 64
     7
 65
   257
 75
     1
175
     1
 42
1.0
 92
        0
 66
   257
 43
1.0
 76
     1
 77
     6
 78
     2
 67
     7
 79
     5
170
     0
171
     0
290
     0
174
     0
 93
       13
 44
0.0
173
     0
291
     1
 45
0.0
1001
ACAD
1000
AcDbSavedByObjectVersion
1070
     0
  0
VISUALSTYLE
  5
38
102
{ACAD_REACTORS
330
2A
102
}
330
2A
100
AcDbVisualStyle
  2
Linepattern
 70
    14
 71
     2
 72
     2
 73
     0
 90
        0
 40
-0.6
 41
-30.0
 62
     5
 63
     7
 74
     1
 91
        4
 64
     7
 65
   257
 75
     7
175
     7
 42
1.0
 92
        8
 66
     7
 43
1.0
 76
     1
 77
     6
 78
     2
 67
     7
 79
     5
170
     0
171
     0
290
     0
174
     0
 93
        1
 44
0.0
173
     0
291
     1
 45
0.0
1001
ACAD
1000
AcDbSavedByObjectVersion
1070
     0
  0
VISUALSTYLE
  5
33
102
{ACAD_REACTORS
330
2A
102
}
330
2A
100
AcDbVisualStyle
  2
Realistic
 70
     8
 71
     2
 72
     2
 73
     0
 90
        0
 40
-0.6
 41
-30.0
 62
     5
 63
     7
 74
     1
 91
        0
 64
     7
 65
   257
 75
     1
175
     1
 42
1.0
 92
        8
 66
     8
 43
1.0
 76
     1
 77
     6
 78
     2
 67
     7
 79
     5
170
     0
171
     0
290
     0
174
     0
 93
       13
 44
0.0
173
     0
291
     0
 45
0.0
1001
ACAD
1000
AcDbSavedByObjectVersion
1070
     0
  0
VISUALSTYLE
  5
37
102
{ACAD_REACTORS
330
2A
102
}
330
2A
100
AcDbVisualStyle
  2
Thicken
 70
    13
 71
     2
 72
     2
 73
     0
 90
        0
 40
-0.6
 41
-30.0
 62
     5
 63
     7
 74
     1
 91
        4
 64
     7
 65
   257
 75
     1
175
     1
 42
1.0
 92
       12
 66
     7
 43
1.0
 76
     1
 77
     6
 78
     2
 67
     7
 79
     5
170
     0
171
     0
290
     0
174
     0
 93
        1
 44
0.0
173
     0
291
     1
 45
0.0
1001
ACAD
1000
AcDbSavedByObjectVersion
1070
     0
  0
ENDSEC
  0
EOF
